<?xml version="1.0" standalone="no"?> <!DOCTYPE svg PUBLIC "-//W3C//DTD SVG 1.0//EN" "http://www.w3.org/TR/2001/REC-SVG-20010904/DTD/svg10.dtd" > <svg xmlns="http://www.w3.org/2000/svg" width="100%" height="100%">
<defs >
<font id="cmunbso" horiz-adv-x="428" ><font-face
    font-family="CMU Bright"
    units-per-em="1000"
    panose-1="2 0 7 3 0 0 0 0 0 0"
    ascent="899"
    descent="-268"
    alphabetic="0" />
<missing-glyph horiz-adv-x="760" d="M10 10V765H750V10H10ZM70 112L346 388L70 663V112ZM105 70H655L380 346L105 70ZM105 705L380 429L655 705H105ZM414 388L690 112V663L414 388Z" />
<glyph unicode=" " glyph-name="space" horiz-adv-x="333" />
<glyph unicode="!" glyph-name="exclam" horiz-adv-x="325" d="M103 0L128 117H245L220 0H103ZM159 207L250 694L251 695H368L253 207H159Z" />
<glyph unicode="&quot;" glyph-name="quotedbl" horiz-adv-x="525" d="M221 399L273 695H370L296 399H221ZM397 399L449 695H546L472 399H397Z" />
<glyph unicode="#" glyph-name="numbersign" horiz-adv-x="875" d="M91 157Q91 188 122 195H304L372 333H182Q155 333 146 345T137 371Q137 408 183 408H410L535 659Q552 694 576 694Q590 694 601 684T613 657Q613 648 604 628T545 508Q515 448 495 408H635L759
659Q776 694 800 694Q814 694 826 684T838 657Q838 649 832 635T788 546Q749 468 719 408H846Q894 408 894 371Q894 341 863 334Q857 333 845 333H681L613 195H790Q793 195 797 195T803 196Q830 196 839 183T849 157T841 134T820 121Q816 120 797 120H575L449 -133Q435
-160 420 -164Q415 -166 409 -166Q393 -166 383 -155T372 -129Q372 -118 436 9Q469 75 491 120H351L225 -133Q207 -166 184 -166Q168 -166 158 -155T147 -129Q147 -118 211 9Q244 75 266 120H140Q91 120 91 157ZM389 195H529L596 333H456L389 195Z" />
<glyph unicode="$" glyph-name="dollar" horiz-adv-x="525" d="M60 61L93 148Q154 87 240 74L292 316Q162 354 162 469Q162 548 224 616T373 699L384 750H460L449 701Q500 694 521 685T586 647L554 564Q521 592 497 604T432 621L386 406Q391 405 399 403T430 389T469
361T500 315T514 245Q514 161 453 87T299 -5L288 -55H213L223 -6Q125 7 60 61ZM255 502Q255 447 315 424L356 618Q310 603 283 571T255 502ZM316 78Q366 95 393 134T421 212Q421 273 364 298L316 78Z" />
<glyph unicode="%" glyph-name="percent" horiz-adv-x="889" d="M168 493Q168 590 230 670T367 750Q417 750 448 710T479 606Q479 508 417 428T282 347Q231 347 200 388T168 493ZM178 -41T178 -31T188 -9L811 734Q824 749 836 749Q845 749 852 743T860 726Q860
718 841 693L226 -40Q213 -55 201 -55Q191 -55 185 -48ZM254 474Q254 446 267 435T297 423Q331 423 361 481T391 599Q391 674 348 674Q313 674 291 633Q278 608 266 554T254 474ZM556 90Q556 188 618 267T755 347Q805 347 836 306T867 202Q867 105 806 25T670 -55Q619
-55 588 -14T556 90ZM642 71Q642 44 655 32T685 20Q721 20 750 78T779 196Q779 228 769 249T737 271Q720 271 704 259T679 230Q668 209 655 155T642 71Z" />
<glyph unicode="&amp;" glyph-name="ampersand" horiz-adv-x="783" d="M72 121Q72 208 153 273Q162 279 267 348Q261 399 261 417Q261 541 325 626T469 711Q521 711 553 675T585 584Q585 528 548 480T418 367Q380 341 370 335Q395 257 477 144Q609 232 713 438L787
417Q694 218 529 93Q580 63 627 63Q667 63 742 85L724 1Q652 -17 611 -17Q574 -17 542 -9T493 10T463 29T446 38Q443 38 414 24T334 -3T232 -17Q154 -17 113 24T72 121ZM171 140Q171 112 189 88T250 63Q312 63 391 94Q312 198 285 279Q283 278 263 265T236 247T213
228T190 204T178 176T171 140ZM350 461Q350 439 354 405Q403 436 434 463T477 511T492 544T497 569Q497 572 497 574Q497 605 484 620T450 636Q424 636 399 615T362 559Q350 523 350 461Z" />
<glyph unicode="&apos;" glyph-name="quotesingle" horiz-adv-x="292" d="M192 399L244 695H341L267 399H192Z" />
<glyph unicode="(" glyph-name="parenleft" horiz-adv-x="408" d="M115 92Q115 253 182 424T378 707Q395 722 433 750H509Q409 672 339 549T239 305T209 70Q209 9 218 -41T245 -129T273 -182T302 -222H226Q208 -202 203 -196T176 -156T145 -94T125 -15T115 92Z" />
<glyph unicode=")" glyph-name="parenright" horiz-adv-x="408" d="M10 -221Q214 -65 286 255Q310 360 310 458Q310 519 301 569T274 656T246 709T217 750H292Q339 696 360 653Q404 561 404 437Q404 276 337 106T142 -177Q117 -199 86 -222H41L10 -221Z" />
<glyph unicode="*" glyph-name="asterisk" horiz-adv-x="525" d="M170 440Q170 464 192 478Q194 479 334 535Q309 547 273 564Q225 586 216 592T207 613Q207 632 222 647T255 662Q267 662 296 635Q303 629 323 609Q347 587 362 573Q374 715 379 725Q392 750 421
750Q435 750 444 743T453 722Q453 715 405 573Q531 658 541 661Q544 662 550 662Q564 662 572 652T581 629Q581 607 564 596T476 558Q440 544 417 535Q437 526 468 511Q524 485 534 478T544 456Q544 437 529 422T496 407Q486 407 474 417T418 468Q400 486 389 496Q376
352 372 345Q359 320 330 320Q316 320 307 327T298 348Q298 354 345 496Q219 412 212 409Q208 408 202 408Q188 408 179 417T170 440Z" />
<glyph unicode="+" glyph-name="plus" horiz-adv-x="642" d="M115 264Q115 302 162 302H347Q389 500 391 505Q401 526 425 526Q439 526 450 516T462 488Q462 482 424 302H593Q620 302 629 290T639 264Q639 257 637 250T623 234T592 226H407Q365 29 362 23Q350
2 329 2Q315 2 304 12T292 40Q292 46 330 226H159Q141 226 131 234T118 249T115 264Z" />
<glyph unicode="," glyph-name="comma" horiz-adv-x="292" d="M63 -111L122 0H87L112 117H229L208 17L203 0L122 -111H63Z" />
<glyph unicode="-" glyph-name="hyphen" horiz-adv-x="350" d="M54 199L70 274H349L334 199H54Z" />
<glyph unicode="." glyph-name="period" horiz-adv-x="292" d="M87 0L112 117H229L204 0H87Z" />
<glyph unicode="/" glyph-name="slash" horiz-adv-x="525" d="M19 -185Q19 -173 34 -148L540 720Q555 750 580 750Q594 750 605 739T617 712Q617 702 605 680L95 -195Q88 -206 82 -212T71 -219T56 -222Q42 -222 31 -211T19 -185Z" />
<glyph unicode="0" glyph-name="zero" horiz-adv-x="525" d="M91 179Q91 211 97 255T115 356T152 468T209 568T293 643T405 672Q425 672 444 669T488 653T530 620T560 563T572 475Q572 409 548 300T477 117Q393 -17 259 -17Q238 -17 219 -14T176 2T133 34T103
92T91 179ZM183 166Q183 133 192 110T217 77T245 63T274 59Q304 59 328 70T371 103T402 147T425 203T441 258T454 314Q482 441 482 493Q482 550 456 573T389 597Q294 597 248 482Q230 436 200 296Q183 222 183 166Z" />
<glyph unicode="1" glyph-name="one" horiz-adv-x="525" d="M95 0L111 75H242V76L343 552Q282 531 202 531L218 607Q277 607 322 617T389 639T427 662T456 672H466L339 75H468L452 0H95Z" />
<glyph unicode="2" glyph-name="two" horiz-adv-x="525" d="M52 0L69 80L229 204Q240 212 272 235T317 268T356 299T395 333T425 367T451 405T465 443T472 487Q472 536 440 564T360 593Q326 593 297 580T248 542T218 500T196 459L155 527Q171 554 186 573T230
618T299 658T390 672Q475 672 524 626T574 504Q574 470 564 440T540 389T498 341T449 300T387 255T322 208L156 84H490L472 0H52Z" />
<glyph unicode="3" glyph-name="three" horiz-adv-x="525" d="M58 71L88 147Q88 147 92 142Q96 137 100 133T111 121T127 107T147 94T171 81T198 70T231 63T268 60Q309 60 340 77T388 122T412 175T420 225Q420 255 409 275T380 303T347 314T317 317Q314 317 311
317T306 316H242L258 392Q333 398 341 400Q398 413 431 454T464 536Q464 560 447 578T385 597Q313 597 251 547Q231 529 213 509L180 575Q280 672 399 672Q470 672 517 636T564 543Q564 510 549 478T515 425T471 386T436 361T420 352Q470 333 496 297T523 219Q523
134 442 59T252 -17Q234 -17 217 -15T186 -10T159 -1T135 9T115 21T98 33T83 45T72 55T64 64T58 71Z" />
<glyph unicode="4" glyph-name="four" horiz-adv-x="525" d="M62 156L79 236L426 664H537L447 236H545L528 156H430L397 0H302L335 156H62ZM174 236H357L430 583Q411 540 361 472T174 236Z" />
<glyph unicode="5" glyph-name="five" horiz-adv-x="525" d="M52 82L110 151Q153 61 252 61Q288 61 316 73T361 100T389 140T405 178T413 213Q420 244 420 269Q420 311 398 328T345 346Q271 346 220 272H136L217 655H576L559 576H293L253 389Q308 422 361 422Q432
422 476 374T520 252Q520 143 433 63T235 -17Q218 -17 200 -14T153 -3T98 28T52 82Z" />
<glyph unicode="6" glyph-name="six" horiz-adv-x="525" d="M95 188Q95 318 147 430T285 607T465 672Q520 672 569 653L552 576Q499 597 451 597Q378 597 318 548T227 393L219 361Q309 464 420 464Q481 464 510 410Q537 360 537 303Q537 219 502 148Q473 91 408
37T260 -17Q232 -17 206 -9T154 21T111 85T95 188ZM185 157Q185 61 278 61Q297 61 313 65T342 73T366 89T384 107T399 131T410 156T419 184T425 212T431 241T437 268Q441 296 441 310Q441 322 439 331T434 348T426 361T417 371T405 378T393 383T381 386T369 387T359
388T350 389Q308 385 276 364T228 317T201 257T188 201T185 157Z" />
<glyph unicode="7" glyph-name="seven" horiz-adv-x="525" d="M151 -8Q191 174 294 321T536 572H165L182 655H619Q617 643 614 628T610 607T607 593T603 582T598 574T590 565T579 556T564 540T543 520Q481 457 432 389T353 269T301 156T270 65T251 -8H151Z" />
<glyph unicode="8" glyph-name="eight" horiz-adv-x="525" d="M79 149Q79 214 122 268T255 354Q209 371 185 402T160 470Q160 544 234 608T405 672Q478 672 526 632T574 527Q574 408 419 354Q470 336 496 299T523 219Q523 133 443 58T258 -17Q180 -17 130 29T79
149ZM176 142Q176 60 274 60Q302 60 324 66T362 84T388 107T405 135T414 160T421 183Q428 220 428 233Q428 316 330 316Q291 316 262 302T217 267T191 222T179 177T176 142ZM249 463Q249 392 343 392Q387 392 417 406T461 444T480 487T485 527Q485 597 390 597Q286
597 259 516Q249 478 249 463Z" />
<glyph unicode="9" glyph-name="nine" horiz-adv-x="525" d="M82 29V30L136 97Q176 61 229 61Q300 61 359 117T444 295Q359 196 241 191Q224 193 217 194T196 202T170 222T147 258Q125 306 125 353Q125 500 227 593Q312 672 409 672Q480 672 521 625T567 491L568
465Q567 336 516 224T384 48T213 -17Q138 -17 82 29ZM221 345Q221 332 223 322T230 304T239 290T251 281T264 275T278 271T291 269T303 268T313 267Q396 273 437 343T479 506Q479 555 454 576T391 597Q288 597 252 498Q243 473 226 390L221 345Z" />
<glyph unicode=":" glyph-name="colon" horiz-adv-x="292" d="M87 0L112 117H229L204 0H87ZM162 355L187 472H304L279 355H162Z" />
<glyph unicode=";" glyph-name="semicolon" horiz-adv-x="292" d="M162 355L187 472H304L279 355H162ZM63 -111L122 0H87L112 117H229L208 17L203 0L122 -111H63Z" />
<glyph unicode="&lt;" glyph-name="less" horiz-adv-x="642" d="M144 263Q144 275 149 283T160 295T177 306L602 561Q618 571 629 571Q646 571 656 560T667 533Q667 526 665 521T659 511T653 504T644 498L639 495L247 260Q250 257 296 220L520 39Q521 38 525 35T532
29T539 23T546 15T550 6T552 -5Q552 -20 542 -31T515 -43Q502 -43 485 -30L169 225Q168 226 165 228T160 232T156 236T152 240T149 245T146 250T145 256T144 263Z" />
<glyph unicode="=" glyph-name="equal" horiz-adv-x="642" d="M94 167Q94 198 125 204Q133 205 148 205H571Q618 205 618 167T570 129H139Q121 129 110 137T97 152T94 167ZM135 361Q135 400 191 399Q193 399 194 399H608Q659 399 659 361Q659 354 657 347T643
332T613 324H178Q160 324 150 332T137 347T135 361Z" />
<glyph unicode="&gt;" glyph-name="greater" horiz-adv-x="642" d="M86 -5Q86 17 114 33L506 268Q481 290 456 309L233 489Q233 489 226 494Q219 499 217 501T210 509T203 520T201 533Q201 548 211 559T238 571Q251 571 268 558L584 303Q597 293 602 285T608 273T609
260L608 257Q608 254 608 254T607 251T605 247T603 243T599 239T593 235T586 229T577 223L151 -33Q135 -43 124 -43Q107 -43 97 -32T86 -5Z" />
<glyph unicode="?" glyph-name="question" horiz-adv-x="496" d="M174 0L199 117H316L291 0H174ZM196 653Q293 703 385 703Q462 703 509 675T557 583Q557 512 500 457Q495 453 471 435T426 400T380 350T342 282Q340 277 324 207H230Q240 254 245 274T273 341T334
426Q358 452 395 478T446 523T461 580Q461 607 441 617T373 627Q289 627 209 574L196 653Z" />
<glyph unicode="@" glyph-name="at" horiz-adv-x="700" d="M124 272Q124 382 186 482T349 643T555 703Q592 703 622 694T679 664T721 603T736 507Q736 469 727 413T709 325Q682 236 613 178T469 119Q400 119 357 168T314 292Q314 401 392 488T566 575Q604 575
634 560Q610 627 538 627Q421 627 319 523T217 284Q217 189 274 128T425 67Q485 67 579 92Q584 93 609 93H661Q615 51 546 22T405 -8Q285 -8 205 70T124 272ZM406 303Q406 255 427 225T485 195Q536 195 582 253T628 393V413Q625 452 603 476T549 500Q494 500 450
437T406 303Z" />
<glyph unicode="A" glyph-name="A" horiz-adv-x="675" d="M29 0L430 703H543L645 0H536L512 170H221L125 0H29ZM267 249H500Q458 550 458 591V598L396 479L267 249Z" />
<glyph unicode="B" glyph-name="B" horiz-adv-x="687" d="M82 0L229 694L230 695H471Q537 695 586 680T661 641T699 592T711 542Q711 486 659 437T508 364Q558 355 592 336T643 294T665 253T671 218Q671 146 596 81T409 3Q378 0 345 0H82ZM199 80H315Q320 80 329
80T342 79Q441 79 506 117T572 210Q572 255 529 286T419 322Q389 324 373 324H252L199 80ZM267 399H386Q490 399 551 440T613 527Q613 566 561 590T427 615H313L267 399Z" />
<glyph unicode="C" glyph-name="C" horiz-adv-x="671" d="M129 267Q129 376 188 479T348 646T564 711Q657 711 749 677L709 573L700 580Q690 588 685 591T668 602T645 614T618 623T585 630T546 632Q425 632 330 522T235 277Q235 187 285 125T426 63Q476 63 514
72T569 89T637 126L626 39Q560 5 517 -6T409 -17Q281 -17 205 64T129 267Z" />
<glyph unicode="D" glyph-name="D" horiz-adv-x="746" d="M81 0L228 694L229 695H497Q574 695 630 668T714 598T755 511T768 422Q768 271 661 147T406 3Q385 0 342 0H81ZM200 80H338Q458 80 534 136Q602 186 634 267T666 426Q666 455 661 480T641 531T604 575T545
604T460 615H314L200 80Z" />
<glyph unicode="E" glyph-name="E" horiz-adv-x="625" d="M80 0L227 692H713L696 613H315L270 400H621L605 320H252L202 84H598L580 0H80Z" />
<glyph unicode="F" glyph-name="F" horiz-adv-x="596" d="M80 0L227 692H698L681 613H315L267 386H589L572 306H250L185 0H80Z" />
<glyph unicode="G" glyph-name="G" horiz-adv-x="700" d="M129 267Q129 349 164 429T257 572T397 672T564 711Q625 711 668 700T761 663L721 559Q680 598 654 610Q609 632 545 632Q424 632 330 522T235 277Q235 183 287 123T423 63Q471 63 550 80L585 249H460L477
328H699L636 32Q518 -17 407 -17Q284 -17 207 63T129 267Z" />
<glyph unicode="H" glyph-name="H" horiz-adv-x="708" d="M80 0L227 694L228 695H332L270 401H607L669 695H774L626 0H521L590 321H253L185 0H80Z" />
<glyph unicode="I" glyph-name="I" horiz-adv-x="267" d="M80 0L227 694L228 695H332L185 0H80Z" />
<glyph unicode="J" glyph-name="J" horiz-adv-x="483" d="M49 25L86 120Q110 87 134 75Q162 60 199 60Q319 60 339 157L453 694L454 695H556L446 180Q434 126 425 104Q370 -17 219 -17Q128 -17 49 25Z" />
<glyph unicode="K" glyph-name="K" horiz-adv-x="704" d="M83 0L230 694L231 695H330L256 344L673 695H793L465 419L660 0H547L384 351L229 221L183 0H83Z" />
<glyph unicode="L" glyph-name="L" horiz-adv-x="567" d="M80 0L227 694L228 695H332L201 80H539L522 0H80Z" />
<glyph unicode="M" glyph-name="M" horiz-adv-x="883" d="M86 0L233 694L234 695H372L434 331Q463 149 466 113L482 148L574 307L805 695H944L796 0H702L823 567L829 598L811 563L719 403L488 17H399L335 392L320 489L309 570L306 598L180 0H86Z" />
<glyph unicode="N" glyph-name="N" horiz-adv-x="708" d="M83 0L230 694L231 695H377L551 94L678 694V695H772L624 0H478L304 600L177 0H83Z" />
<glyph unicode="O" glyph-name="O" horiz-adv-x="783" d="M122 264Q122 377 182 481T340 648T542 711Q659 711 732 631T806 428Q806 315 746 211T588 45T387 -17Q272 -17 197 61T122 264ZM228 269Q228 164 280 113T404 62Q469 62 526 97T622 188T683 310T705 438Q705
530 655 582T525 634Q408 634 318 530T228 269Z" />
<glyph unicode="P" glyph-name="P" horiz-adv-x="658" d="M81 0L228 694L229 695H485Q538 695 578 683T642 651T680 608T700 562T705 519Q705 424 617 347T401 270H243L186 0H81ZM257 347H390Q463 347 515 368T593 450Q606 489 606 514Q606 569 561 595Q524 615
445 615H314L257 347Z" />
<glyph unicode="Q" glyph-name="Q" horiz-adv-x="783" d="M122 264Q122 348 158 430T252 574T387 673T542 711Q659 711 732 631T806 430Q806 314 744 209T580 41L671 -111H548L487 -1Q423 -17 387 -17Q269 -17 196 62T122 264ZM224 262Q224 168 274 115T404 61Q423
61 449 65L377 195H487L541 105Q556 113 574 129T618 175T666 253T698 359Q704 395 704 431Q704 525 655 579T525 633Q443 633 373 579T264 440T224 262Z" />
<glyph unicode="R" glyph-name="R" horiz-adv-x="671" d="M81 0L228 694L229 695H477Q544 695 594 679T671 637T709 584T721 530Q721 459 657 401T506 322L641 0H536L411 310H249V309L183 0H81ZM265 385H396Q468 385 514 398T575 426T607 466Q622 494 622 523Q622
596 527 611Q503 615 455 615H314L265 385Z" />
<glyph unicode="S" glyph-name="S" horiz-adv-x="583" d="M58 53L98 156Q121 133 139 119T203 86T302 68Q375 68 423 112T471 206Q471 268 408 293Q392 300 339 312T270 331Q226 349 195 386T163 477Q163 567 246 639T446 711Q546 711 631 663L591 559Q567 582
556 592T509 615T428 629Q357 629 310 591T262 508Q262 476 285 455T335 427T404 409T463 392Q503 376 536 337T570 235Q570 139 485 61T285 -17Q158 -17 58 53Z" />
<glyph unicode="T" glyph-name="T" horiz-adv-x="725" d="M167 611L184 690H833L816 611H544L543 610L414 0H309L439 611H167Z" />
<glyph unicode="U" glyph-name="U" horiz-adv-x="692" d="M125 184Q125 202 137 262L228 694L229 695H333L234 230Q228 196 228 176Q228 120 263 92T363 63Q410 63 446 78T503 113T538 163T558 211T568 255L661 694L662 695H758L665 259L662 246Q660 233 658 226T650
201T638 171T622 140T598 106T567 74T527 42Q439 -17 343 -17Q250 -17 188 39T125 184Z" />
<glyph unicode="V" glyph-name="V" horiz-adv-x="675" d="M162 695H272L333 317Q360 133 363 96L381 132L486 316L709 695H807L394 -5H278L162 695Z" />
<glyph unicode="W" glyph-name="W" horiz-adv-x="967" d="M162 695H263L288 351L295 217L297 130L296 97Q309 145 393 313L582 695H686L713 310L719 207L721 121L720 96Q738 156 1008 695H1099L749 -5H641L614 389L608 495L606 547V565L607 598Q600 571 506 375L318
-5H215L162 695Z" />
<glyph unicode="X" glyph-name="X" horiz-adv-x="675" d="M14 0L354 368L176 695H301L425 452L646 695H763L460 368L659 0H535L391 292L132 0H14Z" />
<glyph unicode="Y" glyph-name="Y" horiz-adv-x="675" d="M150 695H274L422 374L707 695H819L463 295Q447 278 444 263L388 0H285L342 264Q343 269 343 275Q343 283 337 295L150 695Z" />
<glyph unicode="Z" glyph-name="Z" horiz-adv-x="642" d="M58 0Q68 46 70 51T87 73L577 617H204L220 695H731L720 643L213 80H606L589 0H58Z" />
<glyph unicode="[" glyph-name="bracketleft" horiz-adv-x="310" d="M50 -222L256 750H445L430 675H335L160 -147H255L239 -222H50Z" />
<glyph unicode="\" glyph-name="backslash" horiz-adv-x="525" d="M209 711Q209 727 220 738T247 750Q256 750 263 747T274 739T281 727T285 715T287 704L288 696L424 -164Q426 -178 426 -184Q426 -198 416 -210T389 -222Q381 -222 375 -220T365 -214T358 -205T353
-195T351 -186T349 -176L348 -170L209 711Z" />
<glyph unicode="]" glyph-name="bracketright" horiz-adv-x="310" d="M-24 -222L-8 -147H86L261 675H167L183 750H371L165 -222H-24Z" />
<glyph unicode="^" glyph-name="asciicircum" horiz-adv-x="642" d="M242 472L414 620H491L600 472H524L442 573L317 472H242Z" />
<glyph unicode="_" glyph-name="underscore" horiz-adv-x="817" d="M36 -243Q41 -219 68 -219H645Q676 -219 676 -244Q676 -268 643 -268H67Q38 -268 36 -243Z" />
<glyph unicode="`" glyph-name="grave" horiz-adv-x="525" d="M243 667H339L443 538H367L243 667Z" />
<glyph unicode="a" glyph-name="a" horiz-adv-x="492" d="M64 101Q64 163 107 198T232 254Q300 271 389 273Q401 334 401 347Q401 373 385 393T334 414Q296 414 262 404T212 386T164 359Q173 437 176 442Q178 444 185 447Q266 485 350 485Q422 485 460 446T499
355Q499 340 493 310L427 0H333L346 64Q268 -8 162 -8Q110 -8 87 26T64 101ZM159 120Q161 99 180 83T234 67Q274 67 310 86T359 140Q362 148 379 226Q278 222 222 196T160 132L159 120Z" />
<glyph unicode="b" glyph-name="b" horiz-adv-x="517" d="M65 0L212 694L213 695H307L248 418Q333 480 426 480Q467 480 494 452T530 389T540 315Q540 188 462 90T287 -8Q215 -8 172 52L161 0H65ZM185 114Q193 99 200 91T222 75T259 67Q398 67 434 233Q444 276
444 306Q444 360 414 382T342 405Q308 405 277 390T239 361Q236 354 185 114Z" />
<glyph unicode="c" glyph-name="c" horiz-adv-x="467" d="M79 182Q79 295 166 390T372 485Q425 485 455 476T525 442L494 360Q467 379 455 386T416 400T353 407Q313 407 281 390T229 346T197 288T180 230T175 182Q175 130 202 100T281 70Q319 70 354 79T409 98T457
125L446 42Q352 -8 264 -8Q179 -8 129 46T79 182Z" />
<glyph unicode="d" glyph-name="d" horiz-adv-x="517" d="M77 165Q77 240 109 313T197 433T312 480Q391 480 447 422L504 695H598L451 0H354L367 60Q291 -8 208 -8Q150 -8 114 40T77 165ZM172 167Q172 113 202 90T274 67Q302 67 327 80T365 105T379 123L432 368Q402
405 357 405Q277 405 229 349Q199 313 186 257T172 167Z" />
<glyph unicode="e" glyph-name="e" horiz-adv-x="471" d="M74 184Q74 297 160 390T354 484Q392 484 423 473T479 425T504 330Q504 310 494 250H173Q172 249 171 240T167 218T165 196Q165 141 196 104T282 67Q361 67 454 124L444 43Q352 -8 266 -8Q178 -8 126 47T74
184ZM196 309H424Q423 366 397 387T337 409Q296 409 259 382T196 309Z" />
<glyph unicode="f" glyph-name="f" horiz-adv-x="321" d="M98 0L182 397H113L128 472H198Q212 539 216 555T231 590Q257 639 310 671T429 703Q468 703 511 695L493 610Q448 627 412 627Q344 627 318 586Q312 576 290 472H401L385 397H276L192 0H98Z" />
<glyph unicode="g" glyph-name="g" horiz-adv-x="517" d="M43 -139L60 -57Q105 -84 142 -96T232 -109Q279 -109 309 -80T350 -15Q351 -13 378 114Q311 25 221 25Q158 25 119 70T80 185Q80 251 114 319T207 434T329 480Q353 480 373 473T406 456T427 435T440 417L444
410L459 480H553L458 32Q444 -28 430 -55Q421 -72 406 -90T366 -132T301 -169T218 -184Q126 -184 43 -139ZM178 207Q178 160 208 130T281 100Q323 100 357 137T408 250Q427 328 427 336Q427 356 411 380T358 405Q292 405 235 342T178 207Z" />
<glyph unicode="h" glyph-name="h" horiz-adv-x="517" d="M64 0L211 694L212 695H306L242 393Q316 480 410 480Q527 480 527 380Q527 359 519 317L451 0H355L421 312Q426 340 426 347Q426 405 343 405Q333 405 323 403T296 393T266 371T238 328T216 261L160 0H64Z" />
<glyph unicode="i" glyph-name="i" horiz-adv-x="225" d="M192 600L212 694H306L286 600H192ZM65 0L165 472H260L159 0H65Z" />
<glyph unicode="j" glyph-name="j" horiz-adv-x="254" d="M-107 -146L-71 -70Q-35 -96 2 -96Q60 -96 78 -67Q80 -64 85 -46L195 472H289L179 -45Q166 -98 134 -128Q86 -175 16 -175Q-51 -175 -107 -146ZM223 601L243 695H337L317 601H223Z" />
<glyph unicode="k" glyph-name="k" horiz-adv-x="487" d="M67 0L214 694L215 695H304L217 284L432 472H545L341 294L469 0H367L267 229Q250 214 227 194Q198 169 193 163T185 145Q184 142 184 140L154 0H67Z" />
<glyph unicode="l" glyph-name="l" horiz-adv-x="225" d="M65 0L212 694L213 695H307L159 0H65Z" />
<glyph unicode="m" glyph-name="m" horiz-adv-x="808" d="M64 0L164 472H257L239 390Q318 480 411 480Q449 480 474 470T510 443T523 415T528 389Q528 387 528 386Q607 480 701 480Q819 480 819 380Q819 358 811 318L743 0H647L713 311Q718 338 718 347Q718 405
634 405Q624 405 614 403T587 393T557 371T529 328T507 261L452 0H355L422 312Q426 334 426 347Q426 405 343 405Q333 405 323 403T296 393T266 371T238 328T216 261L160 0H64Z" />
<glyph unicode="n" glyph-name="n" horiz-adv-x="517" d="M64 0L164 472H257L239 390Q316 480 410 480Q527 480 527 380Q527 359 519 317L451 0H355L421 312Q426 340 426 347Q426 405 343 405Q333 405 323 403T296 393T266 371T238 328T216 261L160 0H64Z" />
<glyph unicode="o" glyph-name="o" horiz-adv-x="525" d="M73 182Q73 297 163 391T365 485Q447 485 499 430T551 290Q551 171 461 82T260 -8Q177 -8 125 46T73 182ZM169 178Q169 119 200 95T277 70Q330 70 369 98T425 168T450 244T458 306Q458 362 426 385T349
409Q305 409 271 390T218 344T188 283T173 223T169 178Z" />
<glyph unicode="p" glyph-name="p" horiz-adv-x="517" d="M30 -167L166 472H260L248 417Q336 480 430 480H431Q450 480 467 474T501 451T529 399T540 313Q540 187 463 90T290 -8Q217 -8 173 52L126 -167H30ZM186 114Q211 67 258 67Q325 67 382 131T440 280Q440
334 412 368T338 403Q310 403 284 391T244 365Q239 360 237 349T212 235Q197 164 186 114Z" />
<glyph unicode="q" glyph-name="q" horiz-adv-x="517" d="M77 166Q77 287 155 383T328 480Q404 480 443 409L459 480H553L415 -167H319L367 60Q290 -8 212 -8Q151 -8 114 40T77 166ZM176 192Q176 138 204 103T277 67Q321 67 361 103Q364 106 369 111Q380 121 385
137T404 221Q415 278 424 318Q426 330 426 335Q426 355 410 379T357 403Q293 403 235 341T176 192Z" />
<glyph unicode="r" glyph-name="r" horiz-adv-x="346" d="M65 0L165 472H255L234 370Q320 477 433 480L415 395Q338 394 284 354T215 261L159 0H65Z" />
<glyph unicode="s" glyph-name="s" horiz-adv-x="402" d="M37 39L71 125Q136 70 221 70Q271 70 295 92T320 141T290 184Q279 190 239 197T166 220T116 270Q105 291 105 317Q105 341 115 367T146 421T211 467T311 485Q386 485 458 451L427 369Q360 410 284 410Q240
410 219 391T198 345Q198 336 199 332Q201 327 203 324T208 317T214 311T221 307T229 304T240 301T252 298T269 295T288 290Q411 265 411 169Q411 145 402 118T371 61T306 12T205 -8Q113 -8 37 39Z" />
<glyph unicode="t" glyph-name="t" horiz-adv-x="379" d="M104 397L120 472H202L231 607H321L292 472H432L416 397H276Q264 341 253 287T237 211T228 167T222 137T221 120Q221 70 259 70Q303 70 352 105L356 32Q264 -8 186 -8Q122 -8 122 79Q122 91 125 112T134
165T148 229T165 310T184 397H104Z" />
<glyph unicode="u" glyph-name="u" horiz-adv-x="517" d="M84 71Q84 94 91 126L165 472H261L190 137Q182 94 182 91Q182 74 196 69T250 63Q286 63 314 75T357 106T381 142T392 172L395 185L456 472H552L452 0H358L374 75Q285 -8 168 -8Q84 -8 84 71Z" />
<glyph unicode="v" glyph-name="v" horiz-adv-x="458" d="M115 472H209L242 199L249 125L251 96Q258 119 318 229L451 472H544L283 -3H174L115 472Z" />
<glyph unicode="w" glyph-name="w" horiz-adv-x="692" d="M115 472H208L222 263L226 180V119L225 96Q238 144 401 472H486Q507 227 507 119V96Q521 139 686 472H777L541 -3H434L421 190L417 300V321L418 353L420 375Q414 347 380 275T245 -3H149L115 472Z" />
<glyph unicode="x" glyph-name="x" horiz-adv-x="458" d="M0 0L237 244L106 472H210L293 315L438 472H540L319 245L458 0H355L266 187H265L102 0H0Z" />
<glyph unicode="y" glyph-name="y" horiz-adv-x="458" d="M-3 -168L7 -85Q55 -100 88 -100Q100 -100 111 -98T131 -88T147 -77T162 -59T174 -41T186 -20T198 0L116 472H212L248 249L256 180L259 125L258 97Q272 151 452 472H544L259 -33Q179 -175 71 -175Q49 -175
-3 -168Z" />
<glyph unicode="z" glyph-name="z" horiz-adv-x="450" d="M29 0L39 50L384 399H129L144 472H520Q510 426 506 421Q505 419 495 409L166 75H439L423 0H29Z" />
<glyph unicode="{" glyph-name="braceleft" horiz-adv-x="525" d="M97 226L113 302Q175 302 228 328T298 403Q302 415 325 525T352 648Q367 695 423 722T568 750H634L618 675H598Q533 675 499 669T456 653T443 625Q395 400 386 380Q338 279 191 264Q253 262 295
229T337 141Q337 128 290 -95Q285 -116 290 -123Q295 -131 306 -136T339 -143T371 -146T411 -147T443 -147L427 -222H370Q297 -222 259 -209Q188 -185 188 -129Q188 -116 214 1T240 133Q240 176 199 201T97 226Z" />
<glyph unicode="|" glyph-name="bar" horiz-adv-x="292" d="M79 -196Q79 -196 82 -178L273 721Q273 723 274 729T283 742T300 749Q309 749 316 743T323 725Q323 716 319 698L132 -183Q123 -222 103 -222Q93 -222 86 -215T79 -196Z" />
<glyph unicode="}" glyph-name="braceright" horiz-adv-x="525" d="M2 -222L18 -147H37Q102 -147 136 -141T179 -125T193 -98Q241 128 250 148Q299 251 445 264Q383 266 341 300T299 387Q299 402 346 622Q351 644 346 651Q341 659 330 664T297 671T265 674T225
675T193 675L209 750H266Q338 750 376 737Q448 713 448 657Q448 645 422 527T396 395Q396 360 427 333T539 301L522 226Q459 226 406 200T337 125L290 -95Q290 -96 288 -104T285 -116T280 -129T272 -145T259 -161T242 -178T218 -192T187 -205Q139 -222 58 -222H2Z"
/>
<glyph unicode="~" glyph-name="asciitilde" horiz-adv-x="642" d="M207 564Q219 621 267 657T370 694Q405 694 464 667T552 639Q579 639 597 653T621 681L626 695H702Q686 634 638 599T538 564Q500 564 444 591T356 619Q334 619 313 606T282 564H207Z" />
</font>
</defs>
</svg>
