<?xml version="1.0" standalone="no"?> <!DOCTYPE svg PUBLIC "-//W3C//DTD SVG 1.0//EN" "http://www.w3.org/TR/2001/REC-SVG-20010904/DTD/svg10.dtd" > <svg xmlns="http://www.w3.org/2000/svg" width="100%" height="100%">
<defs >
<font id="cmunbsr" horiz-adv-x="428" ><font-face
    font-family="CMU Bright"
    units-per-em="1000"
    panose-1="2 0 7 3 0 0 0 0 0 0"
    ascent="899"
    descent="-268"
    alphabetic="0" />
<missing-glyph horiz-adv-x="760" d="M10 10V765H750V10H10ZM70 112L346 388L70 663V112ZM105 70H655L380 346L105 70ZM105 705L380 429L655 705H105ZM414 388L690 112V663L414 388Z" />
<glyph unicode=" " glyph-name="space" horiz-adv-x="333" />
<glyph unicode="!" glyph-name="exclam" horiz-adv-x="325" d="M103 0V117H220V0H103ZM103 695H220L208 207H115L103 695Z" />
<glyph unicode="&quot;" glyph-name="quotedbl" horiz-adv-x="525" d="M126 695H222L212 399H136L128 625L126 695ZM302 695H399L388 399H312L302 695Z" />
<glyph unicode="#" glyph-name="numbersign" horiz-adv-x="875" d="M58 157Q58 165 61 172T75 187T105 195H266L267 196L305 333H106Q58 333 58 371Q58 397 84 406Q92 408 107 408H327L397 653L398 657Q399 661 400 664T403 671T408 679T415 686T424 692T437 694Q452
694 463 683T474 657Q474 651 405 408H551L621 653L622 656Q623 660 624 662T626 668T630 676T635 682T642 688T651 692T662 694Q677 694 688 683T699 657Q699 651 630 408H765Q784 408 787 407Q816 399 816 371Q816 363 813 356T799 341T769 333H608V332L569 195H753Q790
195 798 190Q816 179 816 157Q816 131 790 122Q782 120 767 120H548L477 -125Q467 -166 437 -166Q422 -166 411 -155T400 -129Q400 -123 469 120H323L253 -125Q243 -166 213 -166Q198 -166 187 -155T175 -129Q175 -123 244 120H109Q90 120 87 121Q76 124 67 134T58
157ZM345 195H491V196L529 333H383V332L345 195Z" />
<glyph unicode="$" glyph-name="dollar" horiz-adv-x="525" d="M46 61L61 148Q106 112 139 97T224 74V316Q137 337 97 392T57 508Q57 577 103 631T223 699L224 700V750H299V701L316 700Q334 698 370 686T448 647L433 564Q394 592 367 604T299 621V406Q383 386
424 327T465 201Q465 125 419 68T299 -5V-55H224V-6Q124 7 46 61ZM146 591T146 521T224 424V618Q146 591 146 521ZM299 78Q341 94 359 125T377 188Q377 263 300 298L299 265V78Z" />
<glyph unicode="%" glyph-name="percent" horiz-adv-x="889" d="M58 461T58 549T104 693T208 750Q267 750 312 693T357 548Q357 462 312 405T208 347T104 404ZM149 548Q149 469 166 445Q181 423 207 423Q234 423 251 459T269 548Q269 565 267 583T258 623T238
659T204 674Q170 671 160 641T149 560V548ZM185 -31Q185 -25 190 -15L655 729Q668 749 682 749Q691 749 698 743T706 726Q706 719 693 696L240 -27Q224 -55 209 -55Q200 -55 193 -48T185 -31ZM532 146Q532 233 577 290T682 347Q743 347 786 288T830 145Q830 59
786 2T682 -55T578 1T532 146ZM623 139Q623 115 624 99T631 62T649 31T681 20Q708 20 725 57T743 146Q743 163 741 181T732 220T712 256T678 271Q644 268 634 238T623 157V139Z" />
<glyph unicode="&amp;" glyph-name="ampersand" horiz-adv-x="783" d="M43 155Q43 226 98 276Q103 281 193 348Q164 431 164 499Q164 589 206 650T317 711Q383 711 424 661T465 548Q465 453 299 335Q340 256 446 144Q461 156 477 173T522 225T576 316T620 438L699
417Q649 227 509 93Q565 63 614 63Q656 63 724 85V1Q665 -17 613 -17Q518 -17 439 40Q331 -17 236 -17Q151 -17 97 34T43 155ZM140 162Q140 123 165 93T237 63Q299 63 371 94Q271 197 226 278H225Q222 276 208 266T189 252T174 239T160 223T150 207T142 186T140
162ZM243 542Q243 524 244 507T249 474T255 448T262 424T268 405Q378 488 378 549Q378 579 363 607T316 636Q287 636 265 610T243 542Z" />
<glyph unicode="&apos;" glyph-name="quotesingle" horiz-adv-x="292" d="M97 695H194L183 399H107L97 695Z" />
<glyph unicode="(" glyph-name="parenleft" horiz-adv-x="408" d="M78 -56T78 264T273 750H349Q326 727 311 710T267 648T221 555T189 430T174 264T188 98T220 -27T267 -120T311 -182T349 -222H273Q78 -56 78 264Z" />
<glyph unicode=")" glyph-name="parenright" horiz-adv-x="408" d="M58 -222Q82 -198 96 -182T139 -120T186 -27T218 97T233 264Q233 351 220 427T189 550T144 641T101 703T65 743Q60 748 58 750H133Q329 583 329 264T133 -222H58Z" />
<glyph unicode="*" glyph-name="asterisk" horiz-adv-x="525" d="M75 449Q75 466 88 475T161 510Q197 525 220 535Q200 544 168 557Q101 585 88 594T75 621Q75 638 86 650T114 662Q125 662 139 652T240 573L223 716Q223 727 233 738T261 750T289 739T300 717Q300
713 283 573Q389 656 397 660Q402 662 409 662Q424 662 435 650T447 621Q447 603 434 594T359 559Q325 545 303 535Q326 525 361 510Q421 485 434 476T447 448Q447 432 435 420T408 407Q399 407 387 415T336 454Q305 479 283 496Q300 357 300 354Q300 342 289 331T261
320T234 331T223 353Q223 355 240 496Q135 413 126 409Q121 407 114 407Q100 407 88 419T75 449Z" />
<glyph unicode="+" glyph-name="plus" horiz-adv-x="642" d="M58 264Q58 277 67 289T99 302H283V485Q284 507 296 516T321 526T345 517T358 485V302H542Q564 301 573 289T583 264Q583 251 574 239T542 226H358V43Q357 21 345 12T321 2Q308 2 296 11T283 43V226H99Q76
227 67 239T58 264Z" />
<glyph unicode="," glyph-name="comma" horiz-adv-x="292" d="M86 0V117H204V17Q203 5 201 -3T194 -20T175 -54T145 -111H86L122 0H86Z" />
<glyph unicode="-" glyph-name="hyphen" horiz-adv-x="350" d="M11 199V274H291V199H11Z" />
<glyph unicode="." glyph-name="period" horiz-adv-x="292" d="M87 0V117H204V0H87Z" />
<glyph unicode="/" glyph-name="slash" horiz-adv-x="525" d="M58 -185Q58 -179 66 -155L385 704Q385 705 387 710T390 716T392 723T395 729T399 734T403 739T408 743T413 747T420 749T428 750Q443 750 454 739T466 713Q466 706 459 687L140 -174L137 -182Q134
-190 133 -192T129 -200T124 -209T117 -215T108 -220T96 -222Q81 -222 70 -212T58 -185Z" />
<glyph unicode="0" glyph-name="zero" horiz-adv-x="525" d="M40 322Q40 362 41 391T51 467T74 547T119 613T191 660Q225 672 262 672Q349 672 405 613Q483 533 483 329Q483 297 482 273T476 211T462 144T436 84T394 30T332 -5Q298 -17 261 -17Q174 -17 116 44Q40
124 40 322ZM136 312Q136 151 174 102Q207 59 261 59Q294 59 325 79T370 146Q386 199 386 333V363Q386 505 354 551T261 597Q198 597 167 549Q136 503 136 366V312Z" />
<glyph unicode="1" glyph-name="one" horiz-adv-x="525" d="M89 531V607Q228 607 299 672H323V75H452V0H95V75H226V552Q166 531 89 531Z" />
<glyph unicode="2" glyph-name="two" horiz-adv-x="525" d="M43 527Q94 672 247 672Q350 672 411 609T472 456Q472 428 462 402T441 357T402 313T359 274T305 231Q277 209 137 84H472V0H52V80Q181 201 246 257Q310 311 341 355T372 454Q372 513 334 553T233 593Q133
593 98 459L43 527Z" />
<glyph unicode="3" glyph-name="three" horiz-adv-x="525" d="M43 71L57 147Q150 61 254 61Q311 61 343 94T376 189Q376 241 347 278T250 316H174V392Q254 398 275 406Q306 419 329 447T352 516Q352 554 328 575T258 597Q229 597 203 588T161 568T131 543T112
521T104 509L58 575Q138 672 258 672Q337 672 394 627T451 515Q451 412 345 353Q411 330 445 285T480 186Q480 109 418 46T255 -17Q136 -17 43 71Z" />
<glyph unicode="4" glyph-name="four" horiz-adv-x="525" d="M29 156V223Q29 233 41 255L284 664H397V236H495V156H397V0H302V156H29ZM124 236H306V583Q296 541 262 476T148 276Q132 250 124 236Z" />
<glyph unicode="5" glyph-name="five" horiz-adv-x="525" d="M35 81L79 151Q138 61 239 61Q272 61 296 71T327 87T345 107Q368 140 368 207Q368 232 366 249T356 292T326 332T271 346Q197 346 163 272H79V655H437V576H171V389Q220 422 272 422Q354 422 413 358T472
204Q472 111 404 47T239 -17Q116 -17 35 81Z" />
<glyph unicode="6" glyph-name="six" horiz-adv-x="525" d="M43 322Q43 481 127 576T323 672Q374 672 430 653V576Q373 597 324 597Q273 597 236 575T179 517T152 444T143 368V360Q161 390 186 411T232 443T277 458T309 463T323 464Q366 459 388 444Q409 430 428
403Q480 329 480 227Q480 170 464 128T409 46Q346 -17 264 -17Q235 -17 207 -9T149 22T96 81T58 180T43 322ZM144 224Q145 200 147 185T156 143T175 101T210 73T264 60Q297 60 320 71T355 97T373 135T380 175T381 214V243Q381 270 379 287T371 328T347 366T301
386L268 389L250 387Q201 379 173 337T145 241V224H144Z" />
<glyph unicode="7" glyph-name="seven" horiz-adv-x="525" d="M43 572V655H480V575Q371 458 312 306T253 -8H153Q153 149 211 286T364 523Q372 532 415 572H43Z" />
<glyph unicode="8" glyph-name="eight" horiz-adv-x="525" d="M43 187Q43 240 77 284T180 354Q134 368 96 404T58 495Q58 565 116 618T261 672Q346 672 406 620T466 495Q466 403 343 354Q395 338 437 295T480 187Q480 104 416 44T262 -17T108 43T43 187ZM141 316T141
188T261 60Q329 60 355 94T382 188Q382 316 262 316Q141 316 141 188ZM148 495Q148 392 261 392Q376 392 376 494Q376 597 268 597H262Q246 597 235 596T206 590T177 574T157 544T148 495Z" />
<glyph unicode="9" glyph-name="nine" horiz-adv-x="525" d="M43 429Q43 486 59 527T114 608Q176 672 265 672Q294 672 321 665T378 634T429 575T465 476T480 332Q480 183 404 83T215 -17Q141 -17 75 29L114 97Q115 97 126 89T143 78T161 70T186 63T216 60Q263
60 297 82T348 139T373 211T381 285Q381 287 381 290T380 295Q323 200 200 191Q156 196 134 211Q114 226 94 254Q43 327 43 429ZM142 413Q142 386 144 368T153 326T178 288T225 269Q231 268 242 268T256 267Q299 272 323 291Q379 335 379 417Q379 420 379 425T378
432H379Q378 458 377 473T368 515T350 557T317 584T264 597Q222 597 195 582T158 539T145 492T142 442V413Z" />
<glyph unicode=":" glyph-name="colon" horiz-adv-x="292" d="M87 0V117H204V0H87ZM87 355V472H204V355H87Z" />
<glyph unicode=";" glyph-name="semicolon" horiz-adv-x="292" d="M86 355V472H203V355H86ZM86 0V117H204V17Q203 5 201 -3T194 -20T175 -54T145 -111H86L122 0H86Z" />
<glyph unicode="&lt;" glyph-name="less" horiz-adv-x="642" d="M87 258T87 264T89 275T93 283T99 291T104 296T110 301L115 304L488 560Q506 571 516 571Q532 571 542 560T553 533Q553 512 530 497L247 302Q222 284 192 265V264Q211 252 247 226L530 31Q553 15
553 -5Q553 -20 543 -31T516 -43Q506 -43 488 -32L115 225Q114 225 111 227T105 232T99 237T93 244T89 253Z" />
<glyph unicode="=" glyph-name="equal" horiz-adv-x="642" d="M58 167Q58 179 66 190T90 204Q98 205 114 205H537Q582 205 582 167T535 129H104Q77 130 68 142T58 167ZM58 361Q58 399 108 399H535Q583 399 583 361Q583 353 581 346T567 332T537 324H103Q85 324
74 332T61 347T58 361Z" />
<glyph unicode="&gt;" glyph-name="greater" horiz-adv-x="642" d="M87 -5Q87 14 111 31L394 226Q430 252 449 264V265Q419 284 394 302L111 497Q87 514 87 533Q87 549 99 560T125 571Q136 571 153 560L526 304Q553 284 553 264Q553 258 551 253T547 244T541 237T535
231T529 227L526 225L153 -32Q136 -43 125 -43Q110 -43 99 -33T87 -5Z" />
<glyph unicode="?" glyph-name="question" horiz-adv-x="496" d="M58 653Q142 703 236 703Q283 703 320 693T378 667T413 630T432 590T437 550Q437 534 435 520T427 494T416 474T403 456T390 443T377 432T367 424Q280 349 280 240V207H186V239Q186 289 197 331T227
402T263 449T299 483T322 502Q341 523 341 554Q341 597 319 612T239 627Q157 627 87 574L58 653ZM174 0V117H291V0H174Z" />
<glyph unicode="@" glyph-name="at" horiz-adv-x="700" d="M58 348Q58 497 161 600T407 703Q499 703 557 649Q586 623 604 586T629 504T639 429T641 358Q641 243 579 181T443 119Q364 119 305 184T246 347T305 509T444 575Q474 575 515 560Q475 627 406 627Q307
627 229 548T150 347Q150 234 224 151T412 67Q437 67 465 71T511 79T544 88L560 92Q565 93 590 93H641Q547 -8 408 -8Q266 -8 162 95T58 348ZM337 348Q337 280 369 238T444 195Q489 195 519 240T550 347Q550 415 518 457T443 500Q398 500 368 455T337 348Z" />
<glyph unicode="A" glyph-name="A" horiz-adv-x="675" d="M29 0L281 703H394L645 0H536L476 170H185L125 0H29ZM214 249H448Q338 560 331 598Q323 566 302 501T249 346T214 249Z" />
<glyph unicode="B" glyph-name="B" horiz-adv-x="687" d="M82 0V695H322Q427 695 496 658Q544 633 571 595T599 517Q599 443 513 395Q487 381 431 364Q520 348 574 300T628 192Q628 120 563 66T402 2Q385 0 349 0H82ZM182 80H303Q307 80 314 80T326 79Q430 79
479 115T529 193Q529 238 482 276T355 322Q338 324 305 324H183L182 289V80ZM182 399H303Q393 399 447 434T502 515Q502 559 444 587T298 615H183L182 583V399Z" />
<glyph unicode="C" glyph-name="C" horiz-adv-x="671" d="M64 347Q64 500 165 605T409 711Q510 711 606 677L588 573Q557 593 540 602T488 622T412 632Q308 632 239 548T169 347Q169 232 237 148T413 63Q463 63 502 73T556 92T610 126L618 39Q582 18 561 9T502
-9T413 -17Q261 -17 163 92T64 347Z" />
<glyph unicode="D" glyph-name="D" horiz-adv-x="746" d="M81 0V695H355Q433 695 497 664T601 582T664 469T686 342Q686 204 601 110T401 2Q383 0 347 0H81ZM183 80H299Q304 80 313 80T328 79Q401 79 453 102T533 165T572 248T584 342Q584 394 572 439T533 525T454
591T327 615H184L183 587V80Z" />
<glyph unicode="E" glyph-name="E" horiz-adv-x="625" d="M80 0V692H565V613H185V400H536V320H185V84H580V0H80Z" />
<glyph unicode="F" glyph-name="F" horiz-adv-x="596" d="M80 0V692H551V613H185V386H507V306H185V0H80Z" />
<glyph unicode="G" glyph-name="G" horiz-adv-x="700" d="M64 348Q64 499 165 605T411 711Q519 711 620 663L602 559Q571 583 553 595T496 619T411 632Q305 632 237 547T169 347Q169 229 239 146T412 63Q456 63 533 80V249H408V328H629V32Q520 -17 410 -17Q311
-17 231 34T107 169T64 348Z" />
<glyph unicode="H" glyph-name="H" horiz-adv-x="708" d="M80 0V695H185V401H521V695H626V0H521V321H185V0H80Z" />
<glyph unicode="I" glyph-name="I" horiz-adv-x="267" d="M80 0V695H185V0H80Z" />
<glyph unicode="J" glyph-name="J" horiz-adv-x="483" d="M43 25L60 120Q111 60 187 60Q284 60 302 123Q305 134 305 157V695H408V155Q408 115 397 85T368 35T326 4T276 -12T223 -17Q135 -17 43 25Z" />
<glyph unicode="K" glyph-name="K" horiz-adv-x="704" d="M83 0V695H183V344L526 695H645L376 419L660 0H547L309 351L183 222V0H83Z" />
<glyph unicode="L" glyph-name="L" horiz-adv-x="567" d="M80 0V695H185V80H522V0H80Z" />
<glyph unicode="M" glyph-name="M" horiz-adv-x="883" d="M86 0V695H224Q434 152 441 113Q448 152 658 695H796V0H702V598Q681 528 633 404L485 17H395L250 397Q188 563 180 598V0H86Z" />
<glyph unicode="N" glyph-name="N" horiz-adv-x="708" d="M83 0V695H229L531 94V695H624V0H478L177 601V0H83Z" />
<glyph unicode="O" glyph-name="O" horiz-adv-x="783" d="M58 345Q58 499 156 605T391 711Q526 711 625 606T724 346T625 88T391 -17T157 87T58 345ZM163 359Q163 222 229 142T391 62Q482 62 551 140T620 359Q620 486 554 560T391 634T229 560T163 359Z" />
<glyph unicode="P" glyph-name="P" horiz-adv-x="658" d="M81 0V695H334Q432 695 497 654Q544 624 571 579T599 482Q599 400 531 335T344 270H186V0H81ZM183 347H313Q338 347 356 348T404 356T453 377T486 416T501 481T487 545T453 585T405 605T358 614T315 615H184L183
578V347Z" />
<glyph unicode="Q" glyph-name="Q" horiz-adv-x="783" d="M58 192T58 346T156 605T391 711Q526 711 625 605T724 346Q724 253 685 173T572 41V40L695 -111H573L488 -1Q433 -17 391 -17Q256 -17 157 87ZM160 343Q160 267 182 210T241 122T315 76T391 61H395Q405
61 436 65L337 195H446L519 104Q622 184 622 345Q622 475 556 554T391 634Q293 634 227 555T160 343Z" />
<glyph unicode="R" glyph-name="R" horiz-adv-x="671" d="M81 0V695H326Q438 695 513 651Q558 624 584 585T611 501Q611 439 562 390T438 322L641 0H536L345 310H183V0H81ZM183 385H321Q387 385 431 397T497 444Q513 469 513 500Q513 556 468 586Q424 615 326
615H184L183 582V385Z" />
<glyph unicode="S" glyph-name="S" horiz-adv-x="583" d="M46 53L64 156Q168 68 287 68Q351 68 390 104T429 186Q429 225 404 252T348 292Q333 298 272 310T164 346T87 416Q57 461 57 513Q57 590 122 650T294 711Q396 711 489 663L471 559Q421 599 389 612Q347
629 294 629Q232 629 192 598T152 524Q152 490 176 466T230 431Q244 426 303 412T382 391Q439 369 481 318T524 196Q524 113 459 48T286 -17Q161 -17 46 53Z" />
<glyph unicode="T" glyph-name="T" horiz-adv-x="725" d="M37 611V690H686V611H414V0H309V611H37Z" />
<glyph unicode="U" glyph-name="U" horiz-adv-x="692" d="M80 244V695H185V242Q185 219 186 203T196 158T220 111T269 78T348 63Q392 63 424 77T473 109T499 154T511 198T513 236V695H610V243Q610 122 531 53T346 -17Q301 -17 256 -2T171 43T106 125T80 244Z" />
<glyph unicode="V" glyph-name="V" horiz-adv-x="675" d="M14 695H124L252 353Q332 136 343 96L353 133L416 309L561 695H659L394 -5H279L14 695Z" />
<glyph unicode="W" glyph-name="W" horiz-adv-x="967" d="M14 695H115Q264 178 275 96Q279 143 328 318L434 695H538L640 334L672 215L694 125L699 96Q703 142 750 305L860 695H951L749 -5H642Q489 527 480 598Q475 544 432 393L319 -5H216L14 695Z" />
<glyph unicode="X" glyph-name="X" horiz-adv-x="675" d="M14 0L276 367V368L29 695H153L329 452L498 695H615L382 368V367L659 0H535L329 292L132 0H14Z" />
<glyph unicode="Y" glyph-name="Y" horiz-adv-x="675" d="M2 695H126L343 374L559 695H671L399 294Q387 275 387 263V0H285V278L2 695Z" />
<glyph unicode="Z" glyph-name="Z" horiz-adv-x="642" d="M58 0Q58 0 58 40Q58 54 71 73L445 617H73V695H583V663Q583 656 583 652T582 644T580 638T576 632T570 624L196 80H589V0H58Z" />
<glyph unicode="[" glyph-name="bracketleft" horiz-adv-x="310" d="M98 -222V750H287V675H192V-147H287V-222H98Z" />
<glyph unicode="\" glyph-name="backslash" horiz-adv-x="525" d="M58 712Q58 728 70 739T96 750Q100 750 103 749T110 747T115 744T120 741T124 736T127 732T130 727T132 722T134 716L136 713L457 -153Q466 -183 466 -184Q466 -200 455 -211T429 -222Q423 -222
418 -221T408 -216T402 -210T396 -202T392 -195T389 -187T387 -180L66 685Q58 706 58 712Z" />
<glyph unicode="]" glyph-name="bracketright" horiz-adv-x="310" d="M23 -147H118V675H23V750H212V-222H23V-147Z" />
<glyph unicode="^" glyph-name="asciicircum" horiz-adv-x="642" d="M141 472L281 620H358L499 472H423L320 573L216 472H141Z" />
<glyph unicode="_" glyph-name="underscore" horiz-adv-x="817" d="M88 -244Q88 -219 120 -219H697Q728 -219 728 -244Q728 -268 695 -268H119Q88 -268 88 -244Z" />
<glyph unicode="`" glyph-name="grave" horiz-adv-x="525" d="M101 667H197L328 538H252L101 667Z" />
<glyph unicode="a" glyph-name="a" horiz-adv-x="492" d="M39 133Q39 199 120 234T330 273V308Q330 349 320 368Q296 414 245 414Q194 413 162 401T87 358L80 442Q163 485 247 485Q322 485 371 441T426 335L427 302V0H333V36L332 64Q304 29 258 11T163 -8Q104
-8 72 36T39 133ZM132 135Q132 105 157 86T220 67Q254 67 283 82T324 122Q330 135 330 163V226Q238 222 185 199T132 135Z" />
<glyph unicode="b" glyph-name="b" horiz-adv-x="517" d="M65 0V695H159V418Q229 480 324 480Q392 480 436 408T481 239Q481 133 425 63T290 -8Q221 -8 161 52V0H65ZM161 130Q161 103 186 85T244 67Q264 67 284 71T331 94T370 142Q385 177 385 239Q385 331 348
369Q313 405 255 405Q243 405 233 404T214 399T199 392T185 384T175 376T166 368L161 363V130Z" />
<glyph unicode="c" glyph-name="c" horiz-adv-x="467" d="M35 237Q35 338 100 411T268 485Q320 485 351 476T431 442L417 360Q375 387 347 397T268 407Q244 407 223 400T180 376T144 323T131 236Q131 147 172 109T265 70Q349 70 430 125L437 42Q354 -8 266 -8Q166
-8 101 65T35 237Z" />
<glyph unicode="d" glyph-name="d" horiz-adv-x="517" d="M35 237Q35 336 85 408T211 480Q290 480 357 422V695H451V0H355V59Q290 -8 210 -8Q135 -8 85 64T35 237ZM131 223Q133 151 160 114Q195 67 261 67Q286 67 308 79T337 99T355 121V367Q319 405 272 405Q208
405 169 365Q131 326 131 244V223Z" />
<glyph unicode="e" glyph-name="e" horiz-adv-x="471" d="M29 239Q29 342 94 413T251 485Q276 485 300 480T350 458T396 417T428 349T441 250H119V240Q119 166 162 117T267 67Q350 67 428 124L435 43Q356 -8 267 -8Q163 -8 96 65T29 239ZM131 309H359Q335 409
250 409Q213 409 180 383T131 309Z" />
<glyph unicode="f" glyph-name="f" horiz-adv-x="321" d="M28 397V472H98V525Q98 571 109 602T157 662Q206 703 280 703Q316 703 363 695V610Q314 627 278 627Q244 627 217 613T190 564V472H300V397H192V0H98V397H28Z" />
<glyph unicode="g" glyph-name="g" horiz-adv-x="517" d="M35 238Q35 339 92 409T228 480Q303 480 357 410V480H451V9Q451 -77 396 -130T258 -184Q166 -184 73 -139V-57Q102 -73 119 -81T175 -99T256 -109Q294 -109 324 -82T355 10V80L354 114Q345 97 332 80T286
44T216 25Q144 25 90 85T35 238ZM131 238Q131 179 170 140T260 101Q294 101 316 125T346 181T355 250H357V322Q357 351 333 378T272 405Q218 405 175 358T131 238Z" />
<glyph unicode="h" glyph-name="h" horiz-adv-x="517" d="M64 0V695H158V435L159 393Q214 480 308 480Q348 480 376 468T419 440T441 398T450 356T451 315V0H355V316Q355 333 353 344T343 372T313 396T258 405Q227 405 206 390T175 350T163 307T160 270V0H64Z" />
<glyph unicode="i" glyph-name="i" horiz-adv-x="225" d="M65 600V694H159V600H65ZM321 0V472H415V0H321Z" />
<glyph unicode="j" glyph-name="j" horiz-adv-x="254" d="M-75 -145L-55 -69Q-14 -95 23 -95Q79 -95 93 -68Q96 -62 96 -48V473H190V-45Q189 -84 174 -112T135 -152T93 -169T55 -174Q-9 -174 -75 -145ZM95 601V695H189V601H95Z" />
<glyph unicode="k" glyph-name="k" horiz-adv-x="487" d="M67 0V695H156V284L331 472H445L279 292L469 0H367L218 229L154 160V0H67Z" />
<glyph unicode="l" glyph-name="l" horiz-adv-x="225" d="M65 0V695H159V0H65Z" />
<glyph unicode="m" glyph-name="m" horiz-adv-x="808" d="M64 0V472H156V424L157 390Q210 480 308 480Q325 480 340 478T366 473T388 464T405 453T418 441T427 428T435 415T440 404T443 394T446 386Q498 480 600 480Q639 480 667 468T710 441T732 400T741 357T743
315V0H647V310Q645 356 632 374Q609 405 548 405Q510 405 481 374T452 270V0H355V310Q354 354 343 371Q321 405 257 405Q219 405 190 374T160 270V0H64Z" />
<glyph unicode="n" glyph-name="n" horiz-adv-x="517" d="M64 0V472H156V424L157 390Q210 480 308 480Q348 480 376 468T419 440T441 398T450 356T451 315V0H355V316Q355 333 353 344T343 372T313 396T258 405Q227 405 206 390T175 350T163 307T160 270V0H64Z" />
<glyph unicode="o" glyph-name="o" horiz-adv-x="525" d="M29 130T29 235T98 412T262 484Q361 484 428 409T495 234Q495 131 426 62T262 -8Q168 -8 99 61ZM125 249Q125 156 162 112Q198 70 262 70Q322 70 358 107Q399 149 399 251Q399 336 361 372T262 409Q125
409 125 249Z" />
<glyph unicode="p" glyph-name="p" horiz-adv-x="517" d="M65 -167V472H159V417Q235 480 327 480Q393 480 437 410T481 237Q481 133 425 63T290 -8Q219 -8 161 52V-167H65ZM161 114Q172 100 177 94T201 78T243 67Q297 67 340 114T384 237Q384 309 345 356T253
403Q204 403 161 362V114Z" />
<glyph unicode="q" glyph-name="q" horiz-adv-x="517" d="M35 235Q35 338 90 409T225 480Q300 480 357 409V480H451V-167H355V60Q291 -8 213 -8Q141 -8 88 61T35 235ZM131 235Q131 166 170 117T263 67Q296 67 326 89T357 144V318Q357 350 333 376T273 403Q218
403 175 356T131 235Z" />
<glyph unicode="r" glyph-name="r" horiz-adv-x="346" d="M65 0V472H155V370Q214 478 330 480V395Q303 395 277 388T222 364T177 315T159 237V0H65Z" />
<glyph unicode="s" glyph-name="s" horiz-adv-x="402" d="M29 39L44 125Q123 70 206 70Q252 70 271 89T291 131T274 168T237 188T186 200T141 211Q99 225 67 259T35 344Q35 367 42 388T66 433T119 471T208 485Q284 485 363 451L348 369Q273 410 197 410Q156 410
139 393T122 355Q122 339 134 325T166 303Q167 303 220 292T299 266Q378 222 378 139Q378 82 340 37T207 -8Q114 -8 29 39Z" />
<glyph unicode="t" glyph-name="t" horiz-adv-x="379" d="M19 397V472H101V607H191V472H331V397H191V168Q191 70 243 70Q282 70 329 105L349 33Q274 -8 187 -8Q99 -8 99 157V397H19Z" />
<glyph unicode="u" glyph-name="u" horiz-adv-x="517" d="M64 131V472H160V138Q161 89 167 79Q178 63 236 63Q295 63 322 94T354 156Q355 166 355 187V472H451V0H357V75Q286 -8 170 -8Q134 -8 111 4T79 41T67 84T64 131Z" />
<glyph unicode="v" glyph-name="v" horiz-adv-x="458" d="M14 472H108Q217 146 229 96L244 150L350 472H443L283 -3H174L14 472Z" />
<glyph unicode="w" glyph-name="w" horiz-adv-x="692" d="M14 472H107L184 189L200 122L204 96Q207 145 300 472H386L455 225Q481 125 486 96Q490 138 585 472H676L541 -3H434L372 221L355 291L342 353L339 376Q335 320 245 -3H149L14 472Z" />
<glyph unicode="x" glyph-name="x" horiz-adv-x="458" d="M0 0L185 244V245L6 472H109L226 316L338 472H440L267 245V244L458 0H355L226 187H225L102 0H0Z" />
<glyph unicode="y" glyph-name="y" horiz-adv-x="458" d="M14 472H110Q210 210 225 153Q232 123 236 96Q240 153 334 427Q345 457 350 472H443L269 -20Q244 -90 208 -132T107 -175Q84 -175 32 -168L24 -85Q75 -100 108 -100Q117 -100 124 -99T138 -95T150 -88T159
-80T168 -69T175 -58T181 -44T186 -31T192 -15T197 0L14 472Z" />
<glyph unicode="z" glyph-name="z" horiz-adv-x="450" d="M29 0Q29 0 29 38Q29 41 29 43T29 48T31 52T32 55T36 60T40 66T46 75T54 85L291 399H44V472H419V423L158 75H423V0H29Z" />
<glyph unicode="{" glyph-name="braceleft" horiz-adv-x="525" d="M49 226V302Q110 302 158 327T213 403L214 427V630Q214 740 378 749L421 750H474V675Q421 674 396 673T348 667T318 653T310 628V425Q310 351 258 308Q216 274 134 264Q159 263 185 256T242 232T291
182T310 102V-100Q310 -128 341 -137T474 -147V-222H421Q333 -220 297 -207Q283 -202 271 -196T251 -183T236 -170T226 -155T220 -142T216 -128T215 -116T214 -105T214 -96V101Q212 137 205 152Q188 187 145 206T49 226Z" />
<glyph unicode="|" glyph-name="bar" horiz-adv-x="292" d="M121 -188V716Q121 749 145 749Q170 749 170 715V-188Q170 -222 146 -222Q121 -222 121 -188Z" />
<glyph unicode="}" glyph-name="braceright" horiz-adv-x="525" d="M49 -147Q86 -146 106 -146T148 -143T180 -139T199 -131T211 -118T214 -100V102Q214 176 266 219Q310 255 389 264Q364 265 337 272T281 296T233 346T214 425V628Q214 656 183 665T49 675V750H103Q188
748 227 734Q241 729 253 723T273 710T288 697T298 682T304 669T308 655T309 644T310 633T310 624V427Q312 388 318 375Q335 340 377 321T474 302V226Q413 226 365 201T311 125L310 101V-102Q310 -114 309 -124T298 -153T272 -184T223 -208T145 -222H49V-147Z"
/>
<glyph unicode="~" glyph-name="asciitilde" horiz-adv-x="642" d="M87 564Q89 623 129 658T222 694Q260 694 322 667T415 639Q439 639 457 652T478 695H554Q552 638 514 602T420 564H419Q381 564 319 591T226 619Q202 619 184 606T162 564H87Z" />
</font>
</defs>
</svg>
