<?xml version="1.0" standalone="no"?> <!DOCTYPE svg PUBLIC "-//W3C//DTD SVG 1.0//EN" "http://www.w3.org/TR/2001/REC-SVG-20010904/DTD/svg10.dtd" > <svg xmlns="http://www.w3.org/2000/svg" width="100%" height="100%">
<defs >
<font id="cmunobi" horiz-adv-x="540" ><font-face
    font-family="CMU Concrete"
    units-per-em="1000"
    panose-1="2 0 8 3 0 0 0 0 0 0"
    ascent="1002"
    descent="-341"
    alphabetic="0" />
<missing-glyph horiz-adv-x="760" d="M10 10V765H750V10H10ZM70 112L346 388L70 663V112ZM105 70H655L380 346L105 70ZM105 705L380 429L655 705H105ZM414 388L690 112V663L414 388Z" />
<glyph unicode=" " glyph-name="space" horiz-adv-x="414" />
<glyph unicode="!" glyph-name="exclam" horiz-adv-x="422" d="M162 52Q162 81 186 103T237 125Q259 125 274 111T289 73Q289 45 267 23T215 0Q191 0 177 15T162 52ZM226 222L231 250L307 636Q315 674 338 689T383 705T420 691T435 656Q435 645 421 601L311 235Q303
212 298 210Q293 207 279 207H253Q238 207 232 209T226 222Z" />
<glyph unicode="&quot;" glyph-name="quotedbl" horiz-adv-x="636" d="M284 401Q284 411 330 632Q330 632 330 636Q331 640 332 643T334 651T337 661T341 670T347 680T354 688T364 695T376 699T391 701Q409 701 421 690T434 660Q434 651 363 411Q358 394 352 388T341
380T321 379H314Q284 379 284 401ZM477 401Q477 406 479 418Q530 663 532 669Q533 671 537 676Q554 701 583 701Q601 701 613 690T626 660Q626 651 555 411Q550 395 544 388T533 380T513 379H506Q477 379 477 401Z" />
<glyph unicode="#" glyph-name="numbersign" horiz-adv-x="1019" d="M128 131Q128 169 175 169H347Q356 169 364 181T416 273Q436 308 448 330H235Q187 330 187 368Q187 381 196 391T216 404Q224 406 239 406H491Q494 413 501 425T510 440L632 661L635 666Q638
671 639 672T643 678T648 685T655 689T663 693T673 694Q689 694 699 683T710 657V656Q710 646 681 593Q671 575 639 517Q602 451 577 406H740Q743 413 750 425T759 440L883 663Q899 693 922 694Q938 694 949 683T960 657Q960 646 933 598Q924 582 897 532Q856 459
826 406H964Q979 406 987 404Q999 401 1007 391T1015 368Q1015 354 1006 344T985 332Q971 330 965 330H784L694 169H908Q956 169 956 131Q956 101 927 95Q924 94 904 94H652L509 -163L506 -168Q503 -173 502 -174T498 -179T493 -185T487 -189T479 -193T470 -194Q454
-194 444 -183T433 -157Q433 -147 447 -121T566 94H403L260 -163L257 -168Q254 -173 253 -174T249 -179T244 -185T238 -189T230 -193T221 -194Q205 -194 194 -183T183 -157V-156Q183 -146 216 -87Q226 -68 258 -11Q294 52 317 94H176Q128 94 128 131ZM445 169H597Q606
169 613 180T659 260Q682 302 698 330H534L445 169Z" />
<glyph unicode="$" glyph-name="dollar" horiz-adv-x="636" d="M136 143Q136 185 151 215T201 245Q218 245 230 234T242 206Q242 181 219 160Q222 86 297 73L359 322Q313 331 282 351T238 397T221 439T217 472Q217 502 229 535T267 603T341 664T453 698L454 699Q461
732 467 741T490 750H508Q536 750 536 729Q536 722 530 698Q552 695 571 689T617 669T659 626T675 559Q675 506 656 485T610 463Q593 463 581 474T569 502Q569 526 592 547Q591 558 589 566T579 587T554 608T511 622L456 400Q527 385 561 341T595 243Q595 161 530
85T354 -3Q347 -37 341 -46T317 -56H301Q271 -56 271 -35Q271 -26 278 -3Q213 6 175 42T136 143ZM303 497Q303 470 322 448T383 417L434 621Q373 610 338 574T303 497ZM374 73Q442 87 475 131T509 217Q509 252 487 274T432 305L374 73Z" />
<glyph unicode="%" glyph-name="percent" horiz-adv-x="1019" d="M184 -37T184 -25T206 9L791 580Q754 575 726 575Q643 575 560 610Q553 501 491 424T344 347Q296 347 259 378T222 481Q222 539 246 599T322 705T439 750Q466 750 483 744T524 720T560 694Q641
646 732 646Q790 646 845 667T935 720Q964 749 978 749Q1007 749 1007 718Q1007 711 1006 708Q1006 707 1007 705Q1009 701 1009 699Q1009 690 994 677T952 646T913 614L245 -37Q227 -55 213 -55Q201 -55 193 -46ZM302 483Q302 450 318 436T357 422Q410 422 445
483T481 605Q481 636 467 655T424 674Q390 674 364 650T326 592T308 529T302 483ZM632 77Q632 136 656 196T732 302T849 347Q878 347 903 337T949 296T970 216Q970 156 946 95T870 -11T754 -56Q707 -56 670 -25T632 77ZM712 81Q712 20 767 20Q821 20 856 80T891
202Q891 272 835 272Q800 272 774 247T735 185T718 122T712 81Z" />
<glyph unicode="&amp;" glyph-name="ampersand" horiz-adv-x="956" d="M150 199Q150 245 173 302T231 401Q227 418 227 439Q227 481 243 526T290 612T370 679T481 706Q538 706 582 681T626 605Q626 571 607 553T565 535Q548 535 536 545T524 573Q524 588 538 610V611Q512
630 469 630Q347 630 316 472Q380 504 437 504Q476 504 496 483T517 428Q517 378 483 333T389 288Q326 288 276 324L272 316Q269 308 265 296T255 268T247 236T243 206Q243 136 304 100Q367 64 492 64Q648 64 723 118Q763 146 789 197T816 299Q816 354 770 422Q769
422 761 419T747 413T733 407T718 399T704 390T691 379T683 368T680 354Q680 340 702 330Q720 342 736 342Q756 342 765 330T775 306Q775 284 759 267T714 250Q675 250 636 271T597 341Q597 375 619 404T668 449T732 485T785 516Q816 538 839 568T866 617Q867 621
866 630T866 646Q868 664 884 679T921 694Q937 694 948 684T959 657Q959 630 929 571T844 467Q899 389 899 311Q899 236 856 162T742 47Q642 -11 481 -11Q401 -11 340 3T244 38T187 89T158 144T150 199ZM328 393Q352 364 401 364Q422 364 429 388Q436 410 437 427Q432
428 422 428Q374 428 328 393Z" />
<glyph unicode="&apos;" glyph-name="quotesingle" horiz-adv-x="381" d="M252 401Q252 412 298 630Q298 630 300 637Q301 644 301 647T304 658T310 671T317 682T328 692T342 698T359 701Q377 701 389 690T402 660Q402 651 331 411Q326 395 321 388T310 380T290
379H283Q252 379 252 401Z" />
<glyph unicode="(" glyph-name="parenleft" horiz-adv-x="508" d="M159 69Q159 150 179 238T241 417T351 593T510 737Q530 750 545 750H571Q595 750 595 739Q595 733 578 720Q419 609 331 423T243 61Q243 -14 259 -74T296 -164T333 -213T350 -239Q350 -250 332
-250H301Q283 -250 267 -233Q159 -120 159 69Z" />
<glyph unicode=")" glyph-name="parenright" horiz-adv-x="508" d="M36 -239Q36 -237 37 -235T40 -231T44 -227T49 -224T54 -220Q164 -143 242 -24T355 213T389 438Q389 513 372 573T335 663T298 713T281 739Q281 750 299 750H332Q340 750 345 748T362 736T390
704Q473 596 473 430Q473 354 454 270T398 97T295 -75T147 -220Q143 -223 136 -228T126 -235T119 -240T112 -245T106 -248T99 -250T93 -250T84 -251Q82 -251 78 -251T71 -250T65 -250T59 -251Q36 -251 36 -239Z" />
<glyph unicode="*" glyph-name="asterisk" horiz-adv-x="636" d="M208 406Q208 413 210 419T216 430T224 439T234 446T243 450T250 454L254 455Q381 510 390 513V514L280 575Q257 588 257 604T271 635T304 651Q313 651 325 643T377 603Q408 577 430 560Q430 562
455 698Q464 749 504 749Q516 749 524 742T533 722Q533 714 484 560Q636 647 645 650Q649 651 654 651Q666 651 674 642T683 621Q683 616 682 611T678 601T672 594T665 588T658 583T650 579T644 576T639 574L636 573Q502 515 500 514V513L610 453Q633 440 633 423Q633
407 619 392T586 377Q576 377 564 385T501 434Q476 454 460 467Q457 444 436 330Q435 324 433 316T419 293T387 278Q375 278 366 285T357 305Q357 310 407 467Q288 399 268 388T236 377Q224 377 216 385T208 406Z" />
<glyph unicode="+" glyph-name="plus" horiz-adv-x="956" d="M156 250Q156 287 205 287H510Q520 332 583 582Q583 583 584 587T586 595T588 603T592 612T597 620T604 626T613 631T625 633Q640 633 651 622T663 595Q663 592 659 572L587 287H875Q921 287 921 250Q921
212 873 212H568Q561 182 493 -89L492 -96Q490 -102 488 -107T482 -118T471 -128T454 -133Q438 -133 427 -123T416 -96Q416 -88 429 -34T462 98T491 212H202Q178 212 167 224T156 250Z" />
<glyph unicode="," glyph-name="comma" horiz-adv-x="381" d="M93 -146Q93 -141 110 -125T152 -76T189 0Q141 6 141 49Q141 79 164 102T217 125Q239 125 255 109T272 54Q272 -3 241 -63T176 -158T131 -192Q123 -192 108 -173T93 -146Z" />
<glyph unicode="-" glyph-name="hyphen" horiz-adv-x="444" d="M97 215Q97 220 102 240T110 267Q117 279 136 279H385Q413 279 413 257L406 226Q403 213 402 208T393 198T373 193H126Q97 193 97 215Z" />
<glyph unicode="." glyph-name="period" horiz-adv-x="381" d="M142 51Q142 79 165 102T218 125Q241 125 255 111T269 75Q269 47 246 24T193 0Q170 0 156 14T142 51Z" />
<glyph unicode="/" glyph-name="slash" horiz-adv-x="636" d="M42 -213Q42 -200 60 -172L641 720Q659 749 681 749Q696 749 707 739T718 713Q718 702 703 677L120 -218Q120 -219 117 -223T113 -228T110 -233T105 -238T100 -242T94 -246T87 -248T79 -249Q65 -249
54 -239T42 -213Z" />
<glyph unicode="0" glyph-name="zero" horiz-adv-x="636" d="M138 171Q138 191 140 214T147 260T154 298T162 331T167 349Q180 402 194 444T236 538T297 624T381 682T493 706Q569 706 619 665T669 521Q669 452 640 342Q605 202 550 116T394 0Q355 -11 315 -11Q238
-11 188 30T138 171ZM230 179Q230 64 334 64Q375 64 408 82T463 129T502 197T529 272T550 348Q553 362 555 369Q581 473 581 519Q581 630 475 630Q433 630 399 612T345 569T307 502T280 430T260 355Q257 341 255 334Q230 235 230 179Z" />
<glyph unicode="1" glyph-name="one" horiz-adv-x="636" d="M149 22Q153 64 169 72Q175 75 187 75H305L419 533Q348 489 290 489Q265 489 265 509Q265 518 271 538Q276 556 282 560T311 566T355 576Q433 605 495 686Q508 702 522 702Q544 702 544 683Q544 675
543 672L408 135Q406 125 401 105T394 75H501Q531 75 531 54Q531 34 520 12Q513 0 494 0H183Q149 0 149 22Z" />
<glyph unicode="2" glyph-name="two" horiz-adv-x="636" d="M86 2Q86 13 97 40T130 106T195 186T291 258Q314 271 362 292T440 330T503 373T554 437T571 523Q571 582 536 606T449 630Q367 630 310 568T252 462Q252 444 269 444Q294 444 320 475T346 531Q346 540
340 550T334 564Q334 573 358 592T390 611Q400 611 412 590T424 544Q424 491 373 430T253 368Q217 368 193 391T169 450Q169 482 190 525T247 609T341 678T461 706Q496 706 528 698T592 670T643 614T663 525Q663 473 645 429T599 356T533 301T460 259T387 224T327
194Q283 168 238 123Q277 120 348 100T458 79Q494 79 526 104T574 171Q579 184 583 187T601 190H627Q656 190 656 177Q656 162 641 133T601 70T533 13T443 -11Q400 -11 320 19T215 49Q206 49 201 48Q185 44 173 19T160 -7Q154 -11 140 -11H112Q86 -11 86 2Z" />
<glyph unicode="3" glyph-name="three" horiz-adv-x="636" d="M113 125Q113 168 132 187T175 206Q192 206 204 195T216 167Q216 152 208 138T199 119Q199 111 207 100T240 76T304 64Q409 64 454 112T500 236Q500 261 492 278T472 304T443 317T414 322T386 323H348Q342
323 338 324T331 329T328 341Q328 342 330 353T336 376T343 393Q349 399 368 399H392Q426 399 446 400T493 412T541 441Q588 487 588 554Q588 630 478 630Q400 630 355 598T310 536Q310 521 325 521Q334 521 340 526T347 538Q347 544 341 552T334 564Q334 571 358
591T391 611Q401 611 413 592T426 549Q426 507 390 476T308 445Q273 445 250 466T227 522Q227 592 304 649T491 706Q572 706 623 669T675 560Q675 502 641 446T544 357Q592 309 592 237Q592 156 547 98T436 15T290 -11Q210 -11 162 27T113 125Z" />
<glyph unicode="4" glyph-name="four" horiz-adv-x="636" d="M60 48Q60 58 70 64T116 96T198 167Q273 241 331 334T414 494T457 617T476 677Q491 705 522 705Q537 705 547 696T558 671Q558 662 550 628T517 530T457 397T360 244T223 93Q236 93 248 92T274 89T296
85T319 79T340 72T362 64T383 57Q415 204 428 225Q444 250 472 250Q487 250 497 240T508 215Q508 206 466 39Q475 38 492 38Q510 38 526 39T544 41Q555 41 569 22T584 -5Q584 -15 563 -21Q510 -37 470 -37H447Q421 -158 407 -175Q391 -194 367 -194Q352 -194 342
-184T331 -159Q331 -156 365 -18Q349 -14 315 -2T257 14T200 18T145 16T118 10T107 5T99 2Q88 2 74 21T60 48Z" />
<glyph unicode="5" glyph-name="five" horiz-adv-x="636" d="M122 123Q122 166 142 185T186 205Q205 205 216 194T228 166Q228 143 205 120Q214 90 242 74T309 58Q358 58 397 76T457 119T492 177T510 235T515 281Q515 365 424 365Q345 365 290 314Q287 312 284
309T279 304T275 300T270 297T265 295T259 294T251 293H230Q201 293 201 314Q201 322 207 343L290 674Q297 701 304 703Q306 704 308 704Q312 704 332 696T391 680T476 671Q522 671 566 679T635 696T663 704Q674 704 674 691Q665 644 659 636Q650 624 575 606T428
588Q384 588 355 594L308 407Q372 440 438 440Q518 440 563 397T609 280Q609 208 574 143T467 34T299 -11Q221 -11 172 26T122 123Z" />
<glyph unicode="6" glyph-name="six" horiz-adv-x="636" d="M141 185Q141 236 155 307T192 432Q222 507 267 563T363 648T461 692T553 706Q608 706 643 684T678 615Q678 576 659 558T616 539Q599 539 588 549T576 577Q576 599 593 619Q577 642 540 642Q519 642
497 638T442 618T379 576T319 500T269 383Q365 472 484 472Q518 472 545 461T586 432T610 393T623 352T626 317Q626 283 612 227T571 127Q547 89 505 54T415 3Q372 -11 319 -11Q285 -11 256 -2T199 27T157 88T141 185ZM229 176Q229 58 332 58Q363 58 390 67T434
86T467 117T490 149T505 185T514 213T520 236Q532 286 532 307Q532 396 429 396Q353 396 291 338T229 176Z" />
<glyph unicode="7" glyph-name="seven" horiz-adv-x="636" d="M142 474Q142 479 248 684Q255 698 260 702T277 706H304Q334 706 334 693Q334 686 324 669Q396 706 455 706Q479 706 495 693T518 664T539 635T569 621Q623 621 683 690Q697 706 713 706H747Q769 706
769 694Q769 686 754 668Q532 377 445 61Q445 60 443 50T438 35T431 19T420 4T404 -6T382 -11Q365 -11 354 -1T342 26T358 98T423 264T536 478L581 548Q565 546 555 546Q533 546 517 557T493 580T470 604T436 615H433Q372 612 317 575T230 486Q219 468 215 465T196
461H170Q142 461 142 474Z" />
<glyph unicode="8" glyph-name="eight" horiz-adv-x="636" d="M116 59T116 133T167 271T316 378V379Q300 390 294 395T271 417T246 454T238 501Q238 573 303 639T488 706H490Q565 706 615 675T665 580Q665 450 501 374Q503 373 516 364T534 351T551 337T569 321T584
302T596 279T603 253T607 222Q607 186 590 148T541 73T450 13T318 -11Q231 -11 174 24ZM204 146Q204 101 239 80T329 58Q378 58 416 72T475 109T505 154T515 196Q515 237 468 270Q452 281 436 293T412 310T398 320T387 326T379 328Q374 328 356 322T312 300T262
265T221 213T204 146ZM326 531Q326 523 327 517T331 505T339 494T349 483T365 470T383 457T407 440T436 420Q582 475 582 570Q582 608 553 625T480 642Q401 642 364 606T326 531Z" />
<glyph unicode="9" glyph-name="nine" horiz-adv-x="636" d="M130 81Q130 119 149 137T192 155Q209 155 221 145T233 117Q233 98 217 77Q240 58 281 58Q301 58 321 61T374 80T433 120T490 195T540 312Q444 223 324 223Q281 223 251 240T208 283T189 333T183 378Q183
414 195 465T227 551Q253 597 299 635T393 690Q439 706 495 706Q568 706 618 662T668 514Q668 402 623 280Q572 139 476 64T268 -11Q209 -11 170 11T130 81ZM276 388Q276 298 379 298Q412 298 445 311T509 349T560 421T580 528Q580 642 484 642Q410 642 358 596Q329
570 315 540T288 460Q276 413 276 388Z" />
<glyph unicode=":" glyph-name="colon" horiz-adv-x="381" d="M228 398Q228 426 251 449T305 472Q328 472 342 458T356 421Q356 392 333 370T280 347Q257 347 243 362T228 398ZM142 51Q142 79 165 102T218 125Q241 125 255 111T269 75Q269 47 246 24T193 0Q170
0 156 14T142 51Z" />
<glyph unicode=";" glyph-name="semicolon" horiz-adv-x="381" d="M228 398Q228 426 251 449T305 472Q328 472 342 458T356 421Q356 392 333 370T280 347Q257 347 243 362T228 398ZM93 -146Q93 -141 110 -125T152 -76T189 0Q141 6 141 49Q141 79 164 102T217 125Q239
125 255 109T272 54Q272 -3 241 -63T176 -158T131 -192Q123 -192 108 -173T93 -146Z" />
<glyph unicode="&lt;" glyph-name="less" horiz-adv-x="956" d="M188 250Q188 256 189 261T194 270T201 277T209 283T217 287T226 292T233 295L909 604Q925 612 934 612Q948 612 959 602T971 575Q971 563 963 553T949 540T927 530L306 245Q328 233 338 227L777
-34Q809 -54 809 -75Q809 -90 798 -101T771 -112Q763 -112 743 -102L221 208Q188 227 188 250Z" />
<glyph unicode="=" glyph-name="equal" horiz-adv-x="956" d="M127 131Q127 145 136 156T160 168Q168 169 186 169H846Q865 169 876 161T889 146T892 131Q892 94 844 94H175Q127 94 127 131ZM187 330T187 368T234 406H905Q924 406 935 398T948 383T951 368T949
353T935 338T904 330H234Q187 330 187 368Z" />
<glyph unicode="&gt;" glyph-name="greater" horiz-adv-x="956" d="M108 -75Q108 -65 111 -58T123 -45T135 -38T151 -30L772 254Q762 260 698 298L301 534Q270 553 270 574Q270 589 280 600T307 612Q315 612 335 602L857 291Q890 272 890 250Q890 244 889 239T884
230T878 223T869 217T862 212T853 208L846 205L170 -105Q156 -112 144 -112Q128 -112 118 -101T108 -75Z" />
<glyph unicode="?" glyph-name="question" horiz-adv-x="636" d="M224 511Q224 570 302 638T493 706Q563 706 606 674T649 580Q649 487 563 427Q546 415 473 374T393 327Q378 314 378 297Q378 283 395 283Q426 283 445 306Q448 310 452 317T460 325T475 327H500L501
326Q502 326 504 326T509 327Q531 327 531 313Q531 281 485 244T375 207Q337 207 317 228T296 283Q296 352 354 395Q378 413 439 444T534 504T568 568Q568 592 548 611T478 630Q419 630 372 601T322 551Q321 548 322 541T323 531Q323 507 306 490T265 472Q248 472
236 483T224 511ZM270 52Q270 82 293 103T344 125Q366 125 381 111T397 73Q397 45 375 23T323 0Q299 0 285 15T270 52Z" />
<glyph unicode="@" glyph-name="at" horiz-adv-x="956" d="M169 254Q169 315 188 377T248 498T345 601T480 673T651 700Q790 700 874 633T959 440Q959 365 931 292T852 169T743 120Q690 120 679 173Q596 120 510 120Q426 120 376 163T326 285Q326 334 345 383T399
476T492 547T618 574Q683 574 728 548T790 472H796Q821 472 821 459Q821 450 819 444Q762 215 762 214Q762 196 780 196Q822 196 851 278T880 424Q880 523 814 574T634 625H632Q558 624 494 602T385 543T310 460T263 365T248 270Q248 243 253 218T275 165T317 117T391
84T499 70Q601 70 711 88T824 106H861Q882 106 882 95Q882 88 873 83Q853 72 805 54T664 15T484 -6Q409 -6 351 11T260 55T205 118T176 186T169 254ZM410 298Q410 243 444 220T523 196Q594 196 639 234T702 314Q721 366 721 397Q721 444 690 471T605 499Q515 499
463 435T410 298Z" />
<glyph unicode="A" glyph-name="A" horiz-adv-x="908" d="M76 21Q80 61 94 71Q100 75 122 75Q140 75 174 77L567 680Q585 707 614 707H649Q660 707 667 703T676 692T680 676L771 75H820Q849 75 849 54Q845 10 828 3Q820 0 811 0H635Q605 0 605 21Q609 64 624 72Q630
75 644 75H672L652 207H362Q351 206 344 197Q341 194 264 76Q267 76 274 76T284 76T292 75T300 73T306 69T310 63T311 54Q311 50 306 28Q302 12 296 7T276 0H105Q76 0 76 21ZM398 282H640L595 586L398 282Z" />
<glyph unicode="B" glyph-name="B" horiz-adv-x="868" d="M113 22Q117 64 132 72Q137 75 157 75H203L339 619H299Q268 619 268 640Q268 660 278 680Q285 694 306 694H640Q816 694 860 612Q874 587 874 552Q874 499 837 452T730 379Q713 373 679 363Q740 353 782
321T825 228Q825 208 818 182T788 123T733 64T643 19T512 0H141Q113 0 113 22ZM294 75H493Q533 76 548 77T594 85T652 106Q732 147 732 219Q732 263 701 289T618 321Q601 323 567 323H355L294 75ZM375 399H542Q681 399 743 457Q783 495 783 535Q783 619 633 619H429L375
399Z" />
<glyph unicode="C" glyph-name="C" horiz-adv-x="892" d="M168 252Q168 329 200 407T290 553T442 663T650 706Q785 706 860 618H861Q928 697 933 701Q939 706 950 706Q968 706 968 691Q968 688 940 573T910 454Q905 435 884 435H856Q835 435 830 438T825 453V473Q825
540 784 585T665 630Q609 630 555 617T445 576T347 492T280 362Q264 311 264 262Q264 216 279 181T319 124T378 88T446 69T519 64Q604 64 673 109T769 222Q770 225 771 229T773 235T775 239T777 242T780 244T785 246T791 246T799 247T810 247H824Q853 247 853 234Q853
225 849 213Q816 115 710 52T477 -11Q340 -11 254 55T168 252Z" />
<glyph unicode="D" glyph-name="D" horiz-adv-x="932" d="M111 21Q111 41 121 61Q127 75 151 75H201L337 619H295Q266 619 266 640Q266 644 271 667Q275 685 282 690T311 695Q314 695 320 695T330 694H635Q636 694 643 694T654 695Q798 695 866 625T935 445Q935
379 912 310T845 177T725 66T557 5Q528 0 464 0H139Q111 0 111 21ZM295 75H467Q764 75 830 345Q841 393 841 433Q841 535 770 582Q714 619 605 619H430L295 75Z" />
<glyph unicode="E" glyph-name="E" horiz-adv-x="794" d="M110 21Q114 63 129 72Q134 75 154 75H200L336 617H295Q264 617 264 638Q264 658 274 678Q280 692 302 692H811Q841 692 841 668Q841 668 820 488Q818 470 811 466T787 461H768Q751 461 745 467T739 486Q739
493 743 527T747 591V610Q711 617 616 617H432L431 616L376 397H446Q507 397 537 400Q545 420 550 442T558 471T568 484T589 490H609Q639 490 639 469Q639 463 590 268Q589 265 588 259T585 250T583 244T580 238T576 234T570 230T563 229T552 228H536Q505 228 505
249Q505 250 518 319Q490 321 433 321H358L296 75H452Q542 75 581 78T628 84T643 99Q661 126 706 234Q712 246 718 251T739 256H758Q789 256 789 237Q789 231 701 22Q695 9 689 5T669 0H138Q110 0 110 21Z" />
<glyph unicode="F" glyph-name="F" horiz-adv-x="762" d="M111 21Q115 63 130 72Q135 75 155 75H201L337 617H294Q265 617 265 638Q270 680 285 688Q292 692 303 692H798Q826 692 826 668Q826 668 805 488Q803 472 796 467T773 461H752Q723 461 723 485Q723 486
727 527T732 587Q732 607 729 609Q721 617 551 617H433L432 616L374 383H444Q491 383 528 387Q536 406 541 427T549 456T559 471T580 477H600Q630 477 630 456Q630 450 581 254Q577 238 576 235T571 224T560 216T543 215H527Q496 215 496 235Q496 243 501 266T509
306Q483 308 430 308H355L297 75H359Q388 75 388 54T378 13Q372 0 351 0H139Q111 0 111 21Z" />
<glyph unicode="G" glyph-name="G" horiz-adv-x="960" d="M168 252Q168 333 201 413T294 558T447 665T649 706Q784 706 859 618H860Q927 697 932 701Q938 706 949 706Q968 706 968 691Q968 688 939 573T909 454Q905 441 901 438T884 435H845Q832 435 828 439T824
452V473Q824 542 783 586T667 630Q564 630 483 595T356 503T287 385T264 262Q264 64 534 64Q616 64 664 74T728 117Q731 122 735 138T745 179T754 216H646Q617 216 617 237Q617 246 621 258Q627 282 633 286T659 291H916Q942 290 942 270Q938 227 923 219Q917 216
897 216H850L800 18Q796 2 787 2Q774 2 752 35Q706 7 645 -2T485 -11H478Q410 -11 356 4T268 45T210 104T178 175T168 252Z" />
<glyph unicode="H" glyph-name="H" horiz-adv-x="950" d="M111 21Q115 61 129 71Q135 75 154 75H201L337 619H295Q266 619 266 641Q270 683 285 691Q290 694 303 694H495Q523 694 523 673Q519 633 505 623Q499 619 480 619H433L378 399H770L826 619H784Q754 619
754 641Q758 683 773 691Q778 694 792 694H983Q1011 694 1011 673Q1007 633 993 623Q987 619 968 619H921L786 75Q786 75 828 75Q857 75 857 54Q853 12 838 4Q830 0 819 0H628Q599 0 599 21Q603 61 617 71Q623 75 643 75H690L752 323H359L297 75H339Q369 75 369
54Q365 12 350 4Q342 0 331 0H140Q111 0 111 21Z" />
<glyph unicode="I" glyph-name="I" horiz-adv-x="461" d="M107 21Q111 61 125 71Q131 75 151 75H201L337 619H291Q262 619 262 640Q266 683 281 691Q287 694 300 694H499Q527 694 527 673Q523 633 509 623Q503 619 483 619H433L297 75H343Q372 75 372 54Q368 11
353 3Q347 0 335 0H136Q107 0 107 21Z" />
<glyph unicode="J" glyph-name="J" horiz-adv-x="644" d="M126 94Q126 131 146 149T190 168Q210 168 223 157T236 126Q236 106 219 83Q250 64 296 64Q321 64 341 69T374 85T397 106T413 130T422 153T428 174T431 188L528 574Q530 582 533 597T539 619H473Q444
619 444 640Q444 660 454 680Q460 694 482 694H674Q703 694 703 673Q699 631 684 623Q678 619 663 619H632L620 570L521 176Q513 144 509 130T489 89T446 40Q384 -11 289 -11Q215 -11 171 18T126 94Z" />
<glyph unicode="K" glyph-name="K" horiz-adv-x="940" d="M113 21Q117 61 131 71Q137 75 156 75H203L339 619H297Q268 619 268 641Q272 683 287 691Q292 694 305 694H492Q520 694 520 673Q517 633 502 623Q496 619 477 619H430L356 321L779 620Q767 629 767 641Q767
650 772 667Q777 685 784 689T804 694H985Q1013 694 1013 673Q1013 653 1002 631Q995 619 978 619H964Q917 619 904 617T876 605L633 433L602 412L792 76H830Q846 76 854 75T868 69T874 54Q874 46 869 28Q866 17 864 13T855 4T837 0H676Q648 0 648 21Q648 24 653
47Q658 64 664 69T686 75L527 358Q521 354 511 347T487 330T436 293T353 235Q351 233 347 231T341 227T336 222T332 215T327 203T322 185T315 158T306 123T295 75H336Q366 75 366 54Q362 12 347 4Q339 0 328 0H142Q113 0 113 21Z" />
<glyph unicode="L" glyph-name="L" horiz-adv-x="731" d="M110 21Q115 62 129 71Q135 75 154 75H200L336 619H294Q265 619 265 640Q269 683 284 691Q289 694 302 694H513Q542 694 542 673Q537 632 523 623Q516 619 507 619H432L296 75H416Q459 75 480 75T522 78T550
82T565 92T575 106T585 128Q596 153 605 177T619 213T627 235T635 249T644 255T660 257H682Q709 257 709 236Q709 230 634 24Q629 10 623 5T601 0H138Q110 0 110 21Z" />
<glyph unicode="M" glyph-name="M" horiz-adv-x="1142" d="M117 21Q121 61 135 71Q141 75 161 75Q178 75 208 77L343 619H301Q272 619 272 640Q276 680 289 690Q295 694 309 694H450Q468 694 475 688T487 661L582 145Q584 136 587 118T592 91L978 655Q980 657
983 663T988 670T993 676T998 682T1003 687T1009 690T1016 692T1025 694T1035 695Q1038 695 1042 695T1049 694H1168Q1196 694 1196 673Q1192 630 1177 622Q1172 619 1152 619H1106L970 75H1010Q1041 75 1041 54Q1038 12 1023 4Q1015 0 1003 0H827Q797 0 797 21Q802
62 816 71Q822 75 841 75H887L1020 607H1019Q1001 577 978 545L624 27Q606 0 575 0H559Q552 0 547 0T539 4T533 7T529 14T527 21T525 30T523 40L431 541Q422 584 420 600H419L288 76Q302 75 329 75Q359 75 359 54Q359 50 354 28Q348 0 323 0H145Q117 0 117 21Z"
/>
<glyph unicode="N" glyph-name="N" horiz-adv-x="950" d="M113 21Q117 61 131 71Q137 75 157 75Q174 75 204 77L339 619H297Q268 619 268 641Q272 681 286 690Q293 694 304 694H425Q441 694 446 689T461 666L722 153L838 618Q824 619 797 619Q767 619 767 640Q767
645 772 666Q777 684 783 689T803 694H981Q1009 694 1009 673Q1006 633 992 623Q986 619 965 619Q934 619 919 618L904 558L771 27Q767 9 760 5T737 0H718Q704 0 698 3T685 20L407 567L284 76Q298 75 325 75Q355 75 355 54Q355 50 350 28Q344 0 319 0H141Q113 0
113 21Z" />
<glyph unicode="O" glyph-name="O" horiz-adv-x="914" d="M166 240Q166 317 196 397T283 547T431 661T633 706Q672 706 709 699T785 674T852 628T899 554T918 449Q918 369 888 290T801 142T653 32T453 -11Q321 -11 244 54T166 240ZM266 263Q266 209 285 170T336
110T402 81T474 72Q547 72 608 98T708 164T774 255T813 353T825 443Q825 495 806 532T755 589T687 616T613 625Q542 625 483 602T384 543T318 458T278 361T266 263Z" />
<glyph unicode="P" glyph-name="P" horiz-adv-x="836" d="M112 21Q116 61 130 71Q136 75 155 75H202L338 619H296Q267 619 267 641Q271 682 286 691Q291 694 304 694H644Q684 694 720 687T791 662T846 612T867 532Q867 445 795 368T590 275Q567 272 520 272H347L298
75H340Q370 75 370 54Q366 12 351 4Q343 0 332 0H141Q112 0 112 21ZM364 347H521Q663 347 721 404Q771 452 771 518Q771 552 755 574T708 605T653 616T592 619H431L364 347Z" />
<glyph unicode="Q" glyph-name="Q" horiz-adv-x="914" d="M166 240Q166 301 184 364T242 489T335 599T466 676T632 706Q764 706 841 639T918 449Q918 390 900 328T846 203T745 89T599 11Q603 -45 616 -72T665 -99T736 -73T786 -6Q794 17 807 17Q813 17 818 12T823
0Q823 -14 811 -44T779 -108T722 -168T645 -194Q618 -194 599 -184T570 -158T555 -114T548 -63T547 -2Q500 -11 454 -11Q322 -11 244 53T166 240ZM260 255Q260 133 361 90Q376 136 416 156T495 176Q572 176 590 88Q644 107 686 141T754 212T795 293T818 370T824
435Q824 489 805 528T754 587T687 616T613 625Q542 625 482 601T381 537T313 449T273 350T260 255ZM437 88T437 79T473 70Q507 70 534 74Q517 101 485 101Q465 101 451 95Z" />
<glyph unicode="R" glyph-name="R" horiz-adv-x="900" d="M112 21Q116 61 130 71Q136 75 155 75H202L338 619H298Q267 619 267 641Q267 662 277 682Q283 694 305 694H582Q668 694 715 682Q752 672 780 656T821 625T843 590T853 560T855 538Q855 478 811 426T688
341Q740 302 740 245Q740 224 726 172T712 106Q712 84 728 74T763 64Q779 64 789 73T807 96T816 112Q824 118 854 118Q889 118 889 99Q889 71 851 30T754 -11Q722 -11 693 -3T640 30T615 96Q615 116 629 171T644 238Q644 310 483 310H354L296 75H338Q367 75 367
54Q363 12 348 4Q341 0 326 0H142Q112 0 112 21ZM373 385H505Q652 385 709 433Q758 473 758 525Q758 557 740 577T686 606T625 617T562 619H431L373 385Z" />
<glyph unicode="S" glyph-name="S" horiz-adv-x="700" d="M95 3Q95 6 103 40T126 130T146 209Q150 224 155 227T171 231H200Q211 231 215 231T224 227T228 216Q228 213 226 200T224 177Q224 145 239 122T280 87T333 70T390 64Q439 64 477 80T533 122T561 170T570
211Q570 268 511 293Q497 299 419 317T322 341Q280 357 250 392T219 479Q219 515 236 553T284 626T370 683T491 706Q601 706 660 637Q683 669 695 684T712 702T722 705H724Q745 705 745 691Q745 688 720 586T693 482Q687 463 669 463H641Q623 463 617 466T611 479Q611
482 612 492T613 510Q613 564 583 600T478 636Q398 636 353 594T307 504Q307 470 334 449T394 420T477 402T553 382Q597 365 627 328T658 235Q658 204 648 171T615 106T561 47T482 5T379 -11Q321 -11 276 2T214 27T179 56Q146 9 136 -1T114 -11Q95 -11 95 3Z" />
<glyph unicode="T" glyph-name="T" horiz-adv-x="850" d="M191 478Q191 482 253 666Q257 679 264 684T285 689H897Q926 689 926 666Q926 661 897 484Q894 467 887 463T864 458H845Q816 458 816 482Q816 491 822 532T831 609Q806 613 736 613H625L491 75H569Q594
75 594 54Q594 29 583 11Q577 0 557 0H306Q273 0 273 21Q277 62 290 71Q295 75 308 75H395L529 613H452Q448 613 440 613T429 614Q359 614 322 607Q309 580 297 546T277 490T264 464Q257 458 244 458H223Q191 458 191 478Z" />
<glyph unicode="U" glyph-name="U" horiz-adv-x="929" d="M233 176Q233 210 245 256L309 511Q309 511 336 619H294Q265 619 265 641Q269 683 284 691Q289 694 303 694H494Q522 694 522 673Q518 633 504 623Q498 619 479 619H432Q425 590 403 503L339 246Q328 200
328 176Q328 64 477 64Q520 64 556 73T615 95T659 130T689 166T708 204T718 234T724 256L814 618Q800 619 773 619Q743 619 743 640Q743 645 748 666Q753 684 759 689T780 694H962Q990 694 990 673Q986 633 972 623Q966 619 946 619Q914 619 899 618Q898 611 894
598T889 577L808 253Q800 220 794 200T763 139T703 69Q608 -11 468 -11Q345 -11 289 43T233 176Z" />
<glyph unicode="V" glyph-name="V" horiz-adv-x="908" d="M216 640Q216 660 226 680Q233 694 254 694H427Q456 694 456 673Q452 631 438 623Q432 619 418 619H392L485 108L833 619Q830 619 826 619T819 619T813 620T807 620T802 621T797 623T793 625T790 629T789
634T788 640Q788 644 793 666Q799 694 823 694H991Q1019 694 1019 673Q1015 633 1001 623Q995 619 973 619Q957 619 923 617Q901 582 880 553L515 18Q497 -8 467 -8H432Q420 -8 413 -4T404 6T400 23L303 558Q296 595 292 619H245Q216 619 216 640Z" />
<glyph unicode="W" glyph-name="W" horiz-adv-x="1228" d="M214 641Q218 683 233 691Q239 694 253 694H415Q443 694 443 673Q439 633 426 623Q420 619 405 619H374Q377 576 389 456T410 238T419 109L437 143L519 284L719 619H695Q668 619 668 641Q672 680 685
690Q691 694 706 694H867Q897 694 897 673Q893 633 880 623Q874 619 859 619H827L858 303L868 183L871 143L872 109L926 204L1172 618Q1168 618 1158 618T1144 619Q1114 619 1114 641Q1118 682 1132 691Q1136 694 1152 694H1312Q1340 694 1340 673Q1340 666 1336
649T1325 625Q1318 619 1300 619Q1267 619 1260 617T1246 605L903 32Q893 14 889 9T875 -2T850 -8H827Q812 -8 805 -3T796 8T793 29L743 544H742Q710 474 651 374L487 95Q436 10 427 2Q417 -8 395 -8H368Q352 -7 347 0T340 21L298 455Q294 504 281 619H244Q214
619 214 641Z" />
<glyph unicode="X" glyph-name="X" horiz-adv-x="908" d="M71 21Q71 41 82 63Q89 75 108 75H131Q151 75 162 75T181 79T191 84T200 92L481 364L337 619H278Q243 619 243 641Q243 644 248 666Q252 685 260 690T292 695Q296 695 307 695T327 694H463Q490 694 490
674Q490 665 486 647Q483 634 478 628T468 620T452 619L555 437L743 619Q720 620 720 640Q720 646 724 664Q729 682 735 688T758 694H934Q962 694 962 673T952 632Q946 619 925 619H917Q869 619 858 617T834 604L593 370L760 75H819Q854 75 854 54Q854 50 849 28Q846
17 844 13T835 4T817 0H634Q607 0 607 21Q607 29 611 47Q616 66 623 70T645 75L519 298L290 75Q313 74 313 54Q313 46 309 30Q305 11 299 6T275 0H99Q71 0 71 21Z" />
<glyph unicode="Y" glyph-name="Y" horiz-adv-x="908" d="M212 640Q212 662 221 680Q227 694 250 694H431Q461 694 461 673Q456 633 444 624Q438 619 418 619L548 363L807 619Q783 620 783 641Q787 681 801 690Q807 694 821 694H994Q1022 694 1022 673Q1018 632
1004 623Q998 619 976 619Q927 619 918 617T892 598L583 292Q582 291 580 289Q571 281 566 264T542 173Q528 115 518 75H558Q590 75 590 54Q586 11 571 3Q566 0 552 0H364Q335 0 335 21Q339 61 353 71Q359 75 378 75H426L477 278L303 619H242Q212 619 212 640Z"
/>
<glyph unicode="Z" glyph-name="Z" horiz-adv-x="764" d="M99 17Q99 51 125 76L690 619H571Q390 619 370 607Q346 593 315 491Q309 472 303 468T281 463H261Q233 463 233 483Q233 492 260 586T295 687Q301 694 319 694H813Q837 694 837 678Q837 646 812 622L249
81H380Q483 81 529 84T585 91T602 107Q620 138 652 238Q658 257 664 262T688 267H707Q736 267 736 247Q736 241 667 23Q662 9 657 5T636 0H123Q99 0 99 17Z" />
<glyph unicode="[" glyph-name="bracketleft" horiz-adv-x="381" d="M90 -229Q90 -224 101 -180L327 725Q330 738 336 744T357 750H478Q505 750 505 729Q501 685 484 677Q479 675 465 675H400L188 -175H246Q274 -175 274 -196Q274 -203 269 -220T258 -244Q251
-250 237 -250H119Q90 -250 90 -229Z" />
<glyph unicode="\" glyph-name="backslash" horiz-adv-x="636" d="M272 711Q272 729 283 739T309 749Q317 749 323 747T334 738T342 726T347 710T350 693T353 674T356 655L484 -190L487 -211Q487 -225 477 -237T450 -249Q441 -249 435 -247T424 -238T417 -227T412
-211T408 -193T406 -174T403 -154L275 689Q272 710 272 711Z" />
<glyph unicode="]" glyph-name="bracketright" horiz-adv-x="381" d="M-1 -229Q-1 -221 4 -203Q8 -187 15 -181T39 -175H105L317 675H258Q231 675 231 695Q231 704 234 715Q235 717 236 722T237 728T239 734T241 739T244 742T248 746T252 748T259 749T267 750H382Q414
750 414 729Q414 725 412 717L177 -225Q170 -250 147 -250H26Q-1 -250 -1 -229Z" />
<glyph unicode="^" glyph-name="asciicircum" horiz-adv-x="764" d="M277 520Q277 525 278 529T284 536T290 541T300 545T309 549Q530 638 535 638Q542 638 614 601Q674 571 721 547Q722 547 725 546T730 543T735 540T740 535T743 530T745 523Q745 513 729 490T700
466Q691 466 611 508T523 551Q522 551 521 551T516 549T508 546T495 541T476 533T451 523T417 509T374 492T320 470Q310 466 304 466Q289 466 283 485T277 520Z" />
<glyph unicode="_" glyph-name="underscore" horiz-adv-x="956" d="M49 -311Q49 -280 89 -280H711Q750 -280 750 -311Q750 -341 710 -341H88Q49 -341 49 -311Z" />
<glyph unicode="`" glyph-name="grave" horiz-adv-x="636" d="M317 665Q317 683 332 698T366 714Q380 714 409 694Q430 680 461 659Q510 627 519 619T528 602Q528 592 510 570T480 547Q474 547 459 555T343 628Q317 643 317 665Z" />
<glyph unicode="a" glyph-name="a" horiz-adv-x="636" d="M128 157Q128 228 158 300T254 425T402 478Q465 478 513 437Q530 462 557 462Q574 462 584 452T594 427Q594 422 586 390L520 126Q517 116 517 105Q517 90 528 80T552 70Q570 70 581 90T598 135T608 164Q614
169 628 169H660Q683 169 683 155Q683 148 675 125T651 71T605 17T540 -6Q469 -6 438 51Q363 -6 286 -6Q215 -6 172 37T128 157ZM219 156Q219 109 242 90T300 70Q349 70 393 109T455 215Q473 288 473 300Q473 358 448 380T388 402Q348 402 317 381T268 329T239
262T223 199T219 156Z" />
<glyph unicode="b" glyph-name="b" horiz-adv-x="572" d="M131 156Q131 193 148 263L234 606Q223 607 210 607T189 608T175 610T166 616T163 629Q163 641 167 656T177 676Q183 683 248 688Q281 691 304 693Q306 693 309 693T314 694Q337 694 337 674Q337 666 329
633T306 542T281 442Q345 478 402 478Q429 478 455 471T506 446T546 395T561 315Q561 265 543 211T493 107T406 26T287 -6Q216 -6 174 37T131 156ZM217 157Q217 70 300 70Q347 70 383 99T436 172T462 252T470 316Q470 363 447 382T389 402Q345 402 305 370T242
284Q236 269 227 226T217 157Z" />
<glyph unicode="c" glyph-name="c" horiz-adv-x="572" d="M130 167Q130 286 215 382T433 478Q493 478 531 452T570 382Q570 347 551 330T509 312Q492 312 480 323T468 351Q468 367 481 387Q456 402 421 402Q374 402 337 383T279 337T245 275T227 215T222 168Q222
70 339 70Q392 70 430 78T482 96T508 114T524 123Q531 123 548 105T568 80Q571 71 557 59Q483 -6 327 -6Q223 -6 177 43T130 167Z" />
<glyph unicode="d" glyph-name="d" horiz-adv-x="636" d="M128 157Q128 229 159 301T255 425T402 478Q464 478 511 438L553 606Q544 607 531 607T510 608T496 610T485 616T482 629Q486 668 499 678Q504 682 538 686T603 692L634 694Q656 694 656 674Q656 670 654
660L522 132Q517 110 517 105Q517 89 528 80T552 70Q570 70 581 91T598 136T609 165Q614 169 628 169H655Q683 169 683 154Q683 147 675 124T651 71T605 17T540 -6Q469 -6 438 51Q363 -6 286 -6Q218 -6 173 35T128 157ZM219 156Q219 109 242 90T300 70Q345 70 385
103T447 187Q448 190 454 211T467 260T473 303Q473 341 455 371T388 402T304 371T251 296T227 215T219 156Z" />
<glyph unicode="e" glyph-name="e" horiz-adv-x="572" d="M132 173Q132 298 217 388T432 478Q496 478 535 449T575 370Q575 319 539 281Q475 213 268 213H260Q254 213 243 213T227 212Q224 192 224 172Q224 70 340 70Q391 70 428 78T481 96T507 114T523 123Q532
123 550 103T568 76Q568 71 560 62T533 40T488 18T418 1T326 -6Q271 -6 231 10T171 54T141 111T132 173ZM247 288H288Q491 288 491 358Q491 378 472 390T420 402Q295 402 247 288Z" />
<glyph unicode="f" glyph-name="f" horiz-adv-x="381" d="M-22 -130Q-22 -104 -5 -86T38 -68Q57 -68 67 -78T78 -107Q78 -118 76 -124Q79 -124 84 -124T93 -125H95Q114 -125 126 -110T151 -47T178 75T216 285Q221 312 223 326L235 397H145Q117 397 117 418Q117
427 121 439Q124 452 126 457T135 467T154 472H249V473Q265 579 281 617T332 677Q369 700 407 700Q433 700 456 695T500 673T521 630Q521 606 505 587T462 568Q422 568 422 607Q422 612 424 624L369 625Q352 582 336 472H446Q473 472 473 451Q470 408 453 400Q448
397 435 397H322Q273 104 251 8Q241 -34 235 -57T206 -118T153 -178Q122 -200 89 -200H87Q46 -200 12 -183T-22 -130Z" />
<glyph unicode="g" glyph-name="g" horiz-adv-x="572" d="M76 -139Q76 -113 93 -95T135 -77Q152 -77 164 -87T176 -123Q218 -125 238 -125Q285 -125 316 -118T361 -97T380 -72T390 -43Q391 -39 391 -37Q405 18 410 36Q346 0 288 0Q220 0 175 41T129 162Q129 232
159 303T254 426T401 478Q464 478 512 437Q532 462 557 462Q572 462 582 453T593 428Q593 418 590 409L478 -42L476 -52Q474 -61 473 -65T468 -79T460 -97T450 -114T434 -132T414 -149T388 -166T356 -180Q300 -200 231 -200H208Q76 -200 76 -139ZM219 160Q219 114
242 95T301 75Q345 75 385 106T447 190Q452 203 462 245T473 307Q473 347 451 374T387 402Q349 402 319 382T270 332T240 268T224 206T219 160Z" />
<glyph unicode="h" glyph-name="h" horiz-adv-x="636" d="M92 31Q92 32 98 65L234 606Q225 607 212 607T192 608T178 610T167 616T163 629Q163 636 167 653T178 677T231 687Q271 690 304 693Q306 693 310 693T315 694Q337 694 337 674Q337 666 327 623T299 513T272
407Q349 478 436 478Q501 478 537 450T573 364Q573 311 536 208T499 98Q499 70 525 70Q547 70 567 92T600 148Q605 162 610 165T627 169H652Q683 169 683 155Q683 120 632 58T511 -5Q467 -5 438 19T409 84Q409 103 446 205T484 347Q484 402 421 402Q284 402 210
157Q203 135 196 105T185 59T174 26T156 2T129 -5Q114 -5 103 5T92 31Z" />
<glyph unicode="i" glyph-name="i" horiz-adv-x="381" d="M70 318Q70 330 82 355T114 409T169 457T242 478Q285 478 314 453T343 388V382Q343 365 293 238T242 97Q242 85 250 78T269 70Q293 70 313 94T345 152Q352 169 370 169H408Q427 169 427 155Q427 142 415
117T382 64T327 15T254 -6Q211 -6 182 19T153 84Q153 100 165 134Q254 365 254 375Q254 386 247 394T227 402Q207 402 188 383T157 336Q155 331 153 324T149 314T145 309T138 305T127 304H88Q70 304 70 318ZM279 637Q279 658 296 676T337 694Q354 694 366 683T378
654Q378 633 360 615T319 597Q301 597 290 608T279 637Z" />
<glyph unicode="j" glyph-name="j" horiz-adv-x="381" d="M-34 -138Q-34 -112 -16 -95T26 -77Q66 -77 66 -119V-125H67Q91 -125 103 -123Q187 -110 203 -30L296 342Q300 358 300 367Q300 383 289 392T260 402Q236 402 206 384T155 323Q149 310 144 307T128 304H93Q71
304 71 316Q71 327 86 352T126 406T192 456T276 478Q324 478 356 451T389 379Q389 363 380 330L288 -37Q288 -38 287 -44T284 -55T280 -68T274 -83T265 -99T253 -117T237 -134T216 -152Q152 -200 68 -200Q21 -200 -6 -183T-34 -138ZM327 637Q327 658 345 676T386
694Q404 694 415 683T426 654Q426 633 408 615T367 597Q349 597 338 608T327 637Z" />
<glyph unicode="k" glyph-name="k" horiz-adv-x="572" d="M92 31Q92 40 95 51L234 606Q212 608 200 608H194Q163 608 163 629Q167 668 179 678Q184 682 218 686T284 692L315 694Q337 694 337 677Q337 669 244 298Q275 312 314 344T382 405T451 455T528 478Q564
478 582 453T600 388Q600 291 536 291Q519 291 507 301T495 329Q495 348 508 364T521 389Q521 405 499 401Q487 399 475 395T448 382T424 367T398 346T373 325T345 300T317 275Q367 264 405 236T443 155Q443 144 441 130T438 109Q438 92 449 81T477 70Q499 70 512
90T533 135T544 163Q550 169 582 169H594Q619 169 619 155Q619 140 603 104T549 31T464 -6Q418 -6 384 22T350 99Q350 106 352 121T355 144Q355 204 223 211H222Q181 33 172 19Q157 -5 129 -5Q114 -5 103 5T92 31Z" />
<glyph unicode="l" glyph-name="l" horiz-adv-x="317" d="M109 93Q109 110 118 146L233 606Q218 608 204 608T184 608T174 610T165 618Q163 621 163 629Q163 641 167 656T177 676T191 682T247 688Q281 691 304 693Q306 693 309 693T314 694Q337 694 337 674L331
644L200 123Q197 111 198 101Q199 88 210 79T233 70Q250 70 260 89T282 153Q287 169 309 169H342Q363 169 363 155Q363 148 355 125T331 71T286 18T220 -5Q176 -5 143 21T109 93Z" />
<glyph unicode="m" glyph-name="m" horiz-adv-x="1019" d="M69 318Q69 325 77 348T102 402T147 455T213 478Q250 478 282 457T323 395Q406 478 500 478Q516 478 531 476T571 466T613 438T635 387Q660 413 677 428T734 460T818 478Q884 478 920 450T956 364Q956
315 919 209T881 97Q881 85 889 78T908 70Q931 70 952 93T985 152Q989 162 993 165T1009 169H1039Q1066 169 1066 154Q1066 136 1047 100T986 29T893 -6Q850 -6 821 19T792 84Q792 103 829 206T867 348Q867 402 803 402Q751 402 709 368T641 280T599 175T571 78T557
25Q544 -5 510 -5Q495 -5 485 4T474 29Q474 37 478 53L542 310Q548 331 548 347Q548 402 485 402Q364 402 290 206Q277 172 267 134T252 73T240 32T221 4T191 -5Q176 -5 166 4T155 29Q155 31 161 61L232 345Q236 359 236 367Q236 383 225 392T200 402Q183 402 172
383T155 339T146 310Q142 304 128 304H95Q69 304 69 318Z" />
<glyph unicode="n" glyph-name="n" horiz-adv-x="700" d="M69 318Q69 325 77 348T101 402T146 455T212 478Q249 478 281 458T323 395Q401 478 499 478Q557 478 596 452T636 364Q636 310 599 207T562 97Q562 85 569 78T589 70Q611 70 632 92T665 151Q669 164 675
166T704 169H717Q746 169 746 155Q746 143 735 118T703 65T648 16T574 -5Q531 -5 502 19T472 84Q472 102 510 205T548 347Q548 402 484 402Q432 402 390 368T322 280T280 176T252 79T238 26Q224 -5 191 -5Q176 -5 166 4T155 29Q155 40 158 50L232 347Q235 358 235
367Q235 383 224 392T200 402Q182 402 172 381T155 336T143 307Q139 304 124 304H94Q69 304 69 318Z" />
<glyph unicode="o" glyph-name="o" horiz-adv-x="636" d="M130 167Q130 218 149 271T205 371T302 448T435 478Q521 478 572 433T623 305Q623 232 589 163T484 44T319 -6Q232 -6 181 40T130 167ZM222 168Q222 70 333 70Q389 70 430 96T492 162T522 238T532 304Q532
358 500 380T421 403T337 384T279 338T245 277T227 217T222 168Z" />
<glyph unicode="p" glyph-name="p" horiz-adv-x="636" d="M45 -173Q49 -131 64 -123Q70 -119 84 -119H116L128 -69L232 344Q236 360 236 368Q236 382 225 392T200 402Q182 402 172 382T155 337T144 308T126 304H91Q70 304 70 317Q70 325 78 349T103 403T148 455T213
478Q282 478 315 421Q388 478 467 478Q534 478 579 437T624 314Q624 263 606 208T554 105T468 25T351 -6T241 33L204 -119H246Q275 -119 275 -140Q275 -160 265 -180Q259 -194 236 -194H75Q45 -194 45 -173ZM280 163Q280 113 305 92T364 70Q404 70 435 91T485 143T514
210T530 273T534 316Q534 363 511 382T453 402Q403 402 359 362T298 259Q298 257 293 237T284 199T280 163Z" />
<glyph unicode="q" glyph-name="q" horiz-adv-x="572" d="M128 158Q128 209 146 263T197 366T284 446T402 478Q470 478 514 434H515Q531 453 553 464T584 476Q602 476 602 458Q602 450 594 422L459 -119H499Q530 -119 530 -141Q526 -183 511 -191Q505 -194 492
-194H310Q281 -194 281 -173Q285 -132 299 -123Q305 -119 324 -119H371L408 30Q349 -6 286 -6Q218 -6 173 35T128 158ZM219 156Q219 109 242 90T300 70Q343 70 378 97T433 163T463 239T473 304Q473 327 468 346T442 384T387 402Q340 402 305 372T252 298T227 218T219
156Z" />
<glyph unicode="r" glyph-name="r" horiz-adv-x="524" d="M69 318Q69 325 77 348T101 401T147 455T213 478Q241 478 272 464T318 412Q388 478 464 478Q516 478 548 447T580 369Q580 328 561 310T518 291Q501 291 489 301T477 329Q477 342 484 356T492 375Q492
384 481 393T450 402Q363 402 301 247Q282 199 268 144T249 61T230 14T191 -5Q176 -5 166 4T155 29Q155 38 159 54L227 327Q235 357 235 368Q235 383 224 392T201 402Q184 402 173 383T156 339T147 311Q142 304 117 304H93Q69 304 69 318Z" />
<glyph unicode="s" glyph-name="s" horiz-adv-x="508" d="M88 96Q88 130 107 148T149 167Q166 167 178 156T190 128Q190 110 176 91V90Q204 70 266 70Q337 70 368 94T399 149Q399 174 375 186T307 206T251 218Q221 229 199 255T176 318Q176 332 180 350T197 391T230
433T285 465T366 478Q430 478 468 454T507 388Q507 355 488 339T449 322Q433 322 422 332T410 359Q410 372 419 390Q395 403 353 403Q310 403 286 383T261 338Q261 316 281 306T340 290T396 277Q432 265 457 238T483 169Q483 152 478 132T458 87T420 42T354 8T256
-6Q170 -6 129 24T88 96Z" />
<glyph unicode="t" glyph-name="t" horiz-adv-x="412" d="M87 418Q87 427 91 439Q97 460 102 466T125 472H232Q275 644 278 650Q294 680 324 680Q340 680 350 671T361 646Q361 639 351 596T330 512L319 472H417Q445 472 445 451Q445 442 441 430Q436 409 431 403T408
397H300L234 130Q229 110 229 105Q229 91 239 81T269 70Q299 70 328 93T375 150Q381 163 386 166T404 169H431Q459 169 459 156Q459 145 444 120T405 66T339 16T254 -6Q206 -6 174 22T141 94Q141 108 153 157T184 282T213 397H115Q87 397 87 418Z" />
<glyph unicode="u" glyph-name="u" horiz-adv-x="668" d="M69 317Q69 329 81 354T114 407T169 457T243 478Q286 478 315 453T344 388Q344 369 309 277T274 140Q274 70 346 70Q392 70 432 115T492 239Q540 431 545 441Q559 472 591 472Q607 472 617 463T628 437Q628
432 623 412L552 127Q548 113 548 105Q548 90 559 80T584 70Q607 70 622 117T640 165Q645 169 660 169H691Q715 169 715 154Q715 147 707 124T682 70T637 17T572 -6Q498 -6 468 53Q433 24 403 9T331 -6Q270 -6 228 24T185 125Q185 181 219 274T254 375Q254 387
247 394T228 402Q206 402 185 380T152 323Q148 310 143 307T126 304H99Q69 304 69 317Z" />
<glyph unicode="v" glyph-name="v" horiz-adv-x="572" d="M69 318Q69 330 81 355T113 408T169 457T242 478Q285 478 314 453T343 388Q343 367 309 278T274 145Q274 77 348 70H358Q406 70 436 116T493 265Q509 326 509 354Q509 377 500 396T491 424Q491 445 508
461T546 478Q569 478 583 455T597 393Q597 365 589 319T560 216T512 110T440 28T345 -6Q304 -6 271 4T212 46T186 129Q186 183 220 275T254 374Q254 387 247 394T227 402Q217 402 206 398T179 374T151 322Q147 310 142 307T124 304H95Q69 304 69 318Z" />
<glyph unicode="w" glyph-name="w" horiz-adv-x="828" d="M69 318Q69 330 81 355T113 409T168 457T241 478Q291 478 317 451T344 388Q344 368 310 280T275 148Q275 70 368 70Q435 70 468 201Q526 435 530 443Q545 472 576 472Q592 472 602 463T612 437Q612 425
579 300T546 145Q546 104 571 87T631 70Q675 70 703 125Q721 161 743 240T765 354Q765 378 756 397T747 424Q747 446 765 462T803 478Q826 478 839 455T853 392Q853 373 846 332T822 231T780 120T713 31T621 -6H617Q515 -6 476 55Q421 -6 357 -6Q284 -6 236 25T187
132Q187 185 220 276T254 375Q254 402 228 402Q205 402 184 380T151 320Q147 310 143 307T127 304H94Q69 304 69 318Z" />
<glyph unicode="x" glyph-name="x" horiz-adv-x="574" d="M69 317Q69 356 129 417T275 478Q347 478 387 435Q447 478 501 478Q551 478 582 448T614 370Q614 329 595 310T552 291Q534 291 523 301T512 329Q512 352 530 372Q517 402 488 402Q445 402 424 367Q417
356 390 246T363 120Q363 70 426 70Q464 70 493 93T535 145Q543 163 547 166T572 169H594Q620 169 620 155Q620 116 560 55T414 -6Q342 -6 302 37H301Q249 -6 188 -6Q140 -6 108 24T75 103Q75 144 94 162T137 181Q155 181 166 171T178 143Q178 122 159 100Q170
70 201 70Q219 70 237 79T264 104Q270 114 276 136Q326 334 326 352Q326 402 263 402Q228 402 198 381T154 328Q146 310 143 307T124 304H92Q69 304 69 317Z" />
<glyph unicode="y" glyph-name="y" horiz-adv-x="604" d="M69 318Q69 331 81 356T114 409T169 457T241 478Q290 478 317 451T344 388Q344 367 309 276T274 140Q274 70 346 70Q375 70 401 87T444 130T470 177T486 215Q487 218 514 327T546 444Q562 472 591 472Q606
472 617 462T628 437Q628 426 623 411L526 23L524 12Q521 2 519 -4T513 -23T503 -47T489 -71T470 -98T446 -123T414 -149T375 -171Q315 -200 254 -200Q199 -200 165 -176T130 -114Q130 -85 147 -67T190 -49Q207 -49 219 -59T231 -87Q231 -100 222 -118Q241 -125
265 -125Q319 -125 365 -92T429 -10Q433 1 440 30Q384 -6 331 -6Q271 -6 228 24T185 125Q185 181 219 274T254 375Q254 387 247 394T228 402Q205 402 184 379T151 320Q147 310 143 307T127 304H94Q69 304 69 318Z" />
<glyph unicode="z" glyph-name="z" horiz-adv-x="508" d="M57 6Q57 13 70 33Q85 56 105 80T141 122T188 168T233 211T289 261T345 311L395 360Q385 363 364 372T325 386T291 391Q265 391 249 381T225 360T213 347Q210 346 192 346H174Q144 346 144 360Q144 392
192 435T304 478Q336 478 382 453T443 428Q456 428 470 453T505 478H532Q560 478 560 466Q560 453 535 420T491 366T463 337Q430 303 359 240T228 120Q253 118 298 100T366 81Q404 81 433 102T473 152Q480 169 499 169H530Q555 169 555 155Q555 114 494 54T352
-6Q319 -6 275 19T206 45Q186 45 171 36T144 13T130 -2Q124 -6 112 -6H78Q57 -6 57 6Z" />
<glyph unicode="{" glyph-name="braceleft" horiz-adv-x="636" d="M146 227Q146 229 148 240T155 266T164 284Q169 288 186 288T234 294T297 314Q325 327 343 346T366 377T376 409Q434 639 439 649Q463 699 525 724T673 750H709Q729 750 729 735Q729 730 724 708T714
681Q709 675 657 674Q609 673 580 667T537 649T520 629T511 601Q454 374 450 365Q413 283 295 249Q391 216 391 136Q391 117 360 -4T329 -133Q329 -157 366 -165T445 -174T493 -178T498 -190Q498 -200 488 -233Q484 -244 479 -247T462 -250H436Q325 -250 283 -219T240
-147Q240 -128 271 -7T303 131Q303 161 274 184T174 212Q173 212 167 212T159 213T153 215T148 219T146 227Z" />
<glyph unicode="|" glyph-name="bar" horiz-adv-x="381" d="M105 -219Q105 -208 111 -186L334 704Q334 705 335 710T337 716T338 722T341 728T343 734T346 739T350 742T355 746T361 748T369 749Q381 749 389 741T398 719Q398 709 394 693L166 -216Q159 -249 134
-249Q122 -249 114 -241T105 -219Z" />
<glyph unicode="}" glyph-name="braceright" horiz-adv-x="636" d="M30 -236Q30 -230 36 -208T45 -181Q50 -175 91 -175T177 -167T238 -133Q244 -123 273 -3T310 135Q346 216 464 251Q369 285 369 364Q369 381 427 612Q431 626 431 633Q431 657 395 665T280 675Q262
675 262 689Q262 698 272 733Q276 744 281 747T298 750H324Q435 750 477 719T519 646Q519 627 488 506T456 369Q456 333 491 312T586 288Q587 288 592 288T600 287T607 285T612 281T614 273Q614 265 604 231Q602 223 600 220T591 215T579 213T560 211T534 208Q404
185 384 93Q384 92 384 91Q329 -130 321 -149Q297 -199 235 -224T88 -250H50Q30 -250 30 -236Z" />
<glyph unicode="~" glyph-name="asciitilde" horiz-adv-x="764" d="M272 582Q272 593 311 625Q319 631 323 635Q396 694 455 694Q494 694 547 663T629 632Q656 632 684 647T732 677T759 693Q770 693 783 677T797 650Q797 643 789 635T748 598Q674 538 614 538Q575
538 522 569T441 600Q404 600 360 570T311 539Q300 539 286 555T272 582Z" />
</font>
</defs>
</svg>
