<?xml version="1.0" standalone="no"?> <!DOCTYPE svg PUBLIC "-//W3C//DTD SVG 1.0//EN" "http://www.w3.org/TR/2001/REC-SVG-20010904/DTD/svg10.dtd" > <svg xmlns="http://www.w3.org/2000/svg" width="100%" height="100%">
<defs >
<font id="cmunorm" horiz-adv-x="443" ><font-face
    font-family="CMU Concrete"
    units-per-em="1000"
    panose-1="2 0 6 3 0 0 0 0 0 0"
    ascent="923"
    descent="-263"
    alphabetic="0" />
<missing-glyph horiz-adv-x="760" d="M10 10V765H750V10H10ZM70 112L346 388L70 663V112ZM105 70H655L380 346L105 70ZM105 705L380 429L655 705H105ZM414 388L690 112V663L414 388Z" />
<glyph unicode=" " glyph-name="space" horiz-adv-x="333" />
<glyph unicode="!" glyph-name="exclam" horiz-adv-x="278" d="M85 53Q85 76 101 91T138 106T174 91T190 53Q190 31 174 16T138 1Q117 1 101 16T85 53ZM85 650Q85 677 101 691T138 705Q159 705 175 691T191 651Q191 650 191 647T190 643L168 220Q167 200 164 195T149
190H133Q128 190 125 190T119 191T115 192T112 195T110 198T109 202T108 206T108 212T107 219L86 632Q86 635 86 641T85 650Z" />
<glyph unicode="&quot;" glyph-name="quotedbl" horiz-adv-x="500" d="M125 658Q125 681 138 691T166 701Q174 701 182 699T198 685T206 657Q206 647 201 537T195 386H136Q135 392 130 521T125 658ZM293 657Q293 682 306 691T333 701Q348 701 360 692T373 658Q373
650 368 521T362 386H304Q304 401 301 467T296 593T293 657Z" />
<glyph unicode="#" glyph-name="numbersign" horiz-adv-x="833" d="M56 147Q56 176 94 176H256L295 324H95Q56 324 56 353Q56 383 97 383H310L383 658Q390 694 416 694Q428 694 436 686T444 665Q444 658 432 612T401 496T371 383H531L604 658Q611 694 637 694Q649
694 657 686T665 665Q665 658 653 612T622 496T592 383H734Q776 383 776 353Q776 324 739 324H576L537 176H737Q776 176 776 147Q776 117 735 117H521L448 -158Q441 -194 416 -194Q404 -194 396 -186T388 -165Q388 -158 400 -111T431 8T460 117H300L227 -158Q220
-194 195 -194Q183 -194 175 -186T167 -165Q167 -158 179 -111T211 7T240 117H103Q56 117 56 147ZM316 176H477L515 324H355L316 176Z" />
<glyph unicode="$" glyph-name="dollar" horiz-adv-x="500" d="M55 187Q55 213 68 222T96 232Q112 232 123 221T135 193Q135 173 117 158Q127 113 152 89T220 55V330Q182 338 166 346Q120 366 88 410T55 516Q55 588 98 638T220 698V750H279V699Q331 692 366 670T417
618T437 566T443 521Q443 496 430 486T403 476Q388 476 376 487T363 516Q363 532 381 550Q363 625 279 639V393Q310 386 330 376Q378 354 411 306T444 193Q444 170 439 146T419 88T368 29T279 -4V-55H220V-4Q139 5 97 60T55 187ZM120 525Q120 487 144 455T220 407V639Q187
632 165 617T134 582T123 551T120 525ZM279 56Q330 67 354 102T379 184Q379 226 356 262T279 315V56Z" />
<glyph unicode="%" glyph-name="percent" horiz-adv-x="833" d="M55 547Q55 604 69 646T105 709T150 740T196 750Q221 750 237 743T277 719T316 692Q393 648 472 648Q580 648 645 726Q646 728 649 731T653 735T656 739T660 743T663 745T666 747T670 748T674 749Q691
749 694 726Q705 718 705 712Q705 696 656 654Q653 651 648 647T640 641T634 634T624 620L182 -35Q168 -54 158 -54Q140 -54 140 -35Q140 -31 148 -15L565 605Q520 593 477 593Q406 593 325 625Q333 583 333 548Q333 443 291 395T196 347Q143 347 99 395T55 547ZM120
549Q120 463 146 431Q166 406 196 406T251 440T277 549Q277 619 253 655T195 691Q166 691 145 664Q120 631 120 549ZM499 145Q499 251 542 299T639 347Q691 347 734 300T777 146T735 -7T640 -55Q587 -55 543 -7T499 145ZM564 146Q564 60 590 28Q609 4 640 4T696
37T721 146Q721 216 697 252T640 288Q609 288 589 262Q564 229 564 146Z" />
<glyph unicode="&amp;" glyph-name="ampersand" horiz-adv-x="781" d="M41 151Q41 207 80 252Q91 265 197 359Q163 447 163 532Q163 613 205 659T300 705T384 660T416 558Q416 470 274 349Q292 310 326 260T381 184T412 147Q414 149 423 162T434 177T443 190T454
206T464 222T477 244T491 270T511 305T533 347T562 400H462V458H726V400H622Q519 198 448 110Q520 48 580 48Q614 48 638 69T665 128H721Q719 66 679 28T580 -11Q489 -11 405 64H404Q324 -11 223 -11Q145 -11 93 36T41 151ZM117 160Q117 115 152 82T240 48Q306
48 367 100V101Q277 200 222 302Q214 295 196 280T172 259T154 241T137 222T127 204T119 183T117 160ZM224 549Q224 488 250 406Q360 504 360 559Q360 588 345 617T299 646Q272 646 248 622T224 549Z" />
<glyph unicode="&apos;" glyph-name="quotesingle" horiz-adv-x="278" d="M98 656Q98 682 111 691T138 701Q179 701 179 657Q179 646 174 529T168 386H109Q108 414 103 528T98 656Z" />
<glyph unicode="(" glyph-name="parenleft" horiz-adv-x="389" d="M81 250Q81 410 129 533T262 735Q278 750 295 750H310Q330 750 330 741Q330 737 318 724T285 688T243 633T200 546T165 426Q148 338 148 252Q148 149 166 62T212 -76T266 -164T311 -218T330 -241Q330
-250 305 -250H294Q283 -250 274 -244T240 -213Q81 -43 81 250Z" />
<glyph unicode=")" glyph-name="parenright" horiz-adv-x="389" d="M58 -241Q58 -237 76 -219T121 -164T175 -76T220 62T239 249Q239 552 79 715Q58 736 58 743T86 750H92Q104 750 113 745T144 717Q306 550 306 250Q306 89 259 -34T125 -236Q110 -250 92 -250H77Q58
-250 58 -241Z" />
<glyph unicode="*" glyph-name="asterisk" horiz-adv-x="500" d="M65 424Q65 427 65 430T67 435T70 440T74 445T80 449T88 454T97 460T108 466T121 474L201 520V521Q197 523 189 528T156 547T94 583Q65 600 65 618Q65 631 74 640T95 650H97Q106 650 140 626Q148
621 169 606Q202 583 224 568Q218 707 218 713Q218 733 228 741T249 749Q261 749 271 741T281 713Q281 707 275 568Q389 647 394 649Q397 650 403 650Q414 650 424 640T434 618Q434 612 432 607T427 599T417 591T407 584T393 576T378 567Q369 562 341 546T297 521V520L404
459Q405 459 409 457T414 453T420 450T425 445T429 439T433 432T434 424Q434 412 424 402T403 392H402Q393 392 359 416Q351 421 330 436Q297 459 275 474Q281 335 281 329Q281 309 271 301T249 293Q243 293 237 295T225 305T218 329Q218 335 224 474Q201 458 168
435Q122 403 113 398T95 392Q84 392 75 401T65 424Z" />
<glyph unicode="+" glyph-name="plus" horiz-adv-x="778" d="M56 250Q56 280 94 280H359V540Q359 582 388 582Q418 582 418 541V280H679Q720 280 720 250Q720 230 700 223Q694 221 680 221H418V-40Q418 -82 388 -82Q359 -82 359 -40V221H93Q56 221 56 250Z" />
<glyph unicode="," glyph-name="comma" horiz-adv-x="278" d="M85 53Q85 75 100 90T138 105Q173 105 187 72T202 -6Q202 -50 187 -95T153 -165T125 -191Q118 -191 104 -178T90 -156Q90 -152 103 -134T129 -80T143 0Q120 1 106 11T89 32T85 53Z" />
<glyph unicode="-" glyph-name="hyphen" horiz-adv-x="333" d="M10 195V263H276V195H10Z" />
<glyph unicode="." glyph-name="period" horiz-adv-x="278" d="M85 53Q85 74 100 89T138 105Q160 105 175 89T191 53Q191 32 176 16T138 0T101 16T85 53Z" />
<glyph unicode="/" glyph-name="slash" horiz-adv-x="500" d="M56 -220Q56 -212 66 -184L382 719Q393 749 414 749Q426 749 434 741T443 720Q443 714 435 690L119 -210Q115 -223 112 -230T101 -243T84 -249Q73 -249 65 -241T56 -220Z" />
<glyph unicode="0" glyph-name="zero" horiz-adv-x="500" d="M42 319Q42 522 109 597Q163 655 249 655Q342 655 394 591Q456 515 456 322Q456 116 387 44Q335 -11 249 -11Q156 -11 104 53Q42 129 42 319ZM117 328Q117 147 157 94Q190 48 249 48Q310 48 343 97Q381
152 381 330Q381 382 380 412T370 484T344 550Q310 597 249 597Q185 597 152 547Q136 523 128 481T118 409T117 328Z" />
<glyph unicode="1" glyph-name="one" horiz-adv-x="500" d="M96 532V591Q142 592 175 602T223 624T249 645T272 655Q288 655 292 648T296 624V59H421V0H101V59H226V568Q171 534 96 532Z" />
<glyph unicode="2" glyph-name="two" horiz-adv-x="500" d="M50 0Q50 0 50 37Q50 52 59 63T141 143Q161 163 197 197T249 246T290 288T327 330T351 368T368 410T373 453Q373 522 322 559T209 597Q139 597 113 509Q135 492 135 471Q135 455 122 443T92 430Q84 430
76 433T59 447T50 479Q50 541 100 598T238 655Q329 655 389 599T450 455Q450 428 442 403T425 359T392 316T356 277T310 235T264 193L135 72H271L372 74L383 120L391 170H450L422 0H50Z" />
<glyph unicode="3" glyph-name="three" horiz-adv-x="500" d="M41 147Q41 172 55 182T84 193Q101 193 114 181T127 150Q127 130 108 114Q148 45 249 45Q314 45 346 82T379 182Q379 240 351 275T272 317Q260 319 235 319H191Q180 319 176 320T169 325T166 341Q166
371 170 374Q174 378 187 379T220 381T253 385Q297 395 326 432T355 513Q355 556 328 579T249 602Q175 602 137 558L140 554Q143 551 145 548T150 539T152 525Q152 507 140 496T110 484T81 496T69 528Q69 582 120 618T251 655Q332 655 380 616T429 513Q429 411
325 348Q386 332 421 288T457 180Q457 102 404 46T251 -11Q162 -11 102 35T41 147Z" />
<glyph unicode="4" glyph-name="four" horiz-adv-x="500" d="M27 174V217Q27 234 38 250L279 627Q292 647 297 651T316 657H340Q349 657 354 656T363 648T367 631V232H471V174H367V59H464V0H201V59H298V174H27ZM96 232H303V582Q293 553 251 481T157 329T96 232Z" />
<glyph unicode="5" glyph-name="five" horiz-adv-x="500" d="M50 146Q50 169 63 179T91 190Q109 190 120 178T132 149Q132 132 115 115Q130 84 162 65T236 45Q294 45 334 80T374 200Q374 350 263 350H262Q192 350 150 300Q142 289 137 286T118 283Q97 283 92 289T87
314V628Q87 653 98 653Q102 653 121 646T175 631T249 623Q291 623 324 630T376 645T400 653Q411 653 411 632V617Q411 608 409 604T393 593T349 575Q287 555 223 555Q184 555 146 564V371Q202 409 263 409Q347 409 398 352T449 200Q449 101 389 45T236 -11Q151
-11 101 38T50 146Z" />
<glyph unicode="6" glyph-name="six" horiz-adv-x="500" d="M45 317Q45 394 62 454T106 551T168 612T237 646T304 655Q371 655 402 624T433 554Q433 531 420 521T392 511Q376 511 364 522T352 550Q352 565 365 581Q341 602 305 602Q275 602 246 591T189 554T142
477T122 357Q186 435 288 435Q378 435 427 346Q455 295 455 213Q455 125 415 70Q354 -11 253 -11Q118 -11 68 135Q45 203 45 317ZM126 234Q126 187 135 148T175 77T253 45Q313 45 346 86Q378 126 378 210V231Q378 269 369 299T331 353T258 376Q199 376 163 334T126
234Z" />
<glyph unicode="7" glyph-name="seven" horiz-adv-x="500" d="M55 475L88 677H147V663L153 646L209 645H485V617Q485 601 483 596T468 573Q362 428 348 406Q304 338 285 250T263 91T260 18Q252 -10 221 -10Q207 -10 195 0T182 25Q181 31 181 42Q182 90 188 135T201
213T224 286T250 347T285 407T320 460T362 517T402 572H189L133 570Q129 559 114 475H55Z" />
<glyph unicode="8" glyph-name="eight" horiz-adv-x="500" d="M41 163Q41 284 177 350Q176 351 163 359T143 372T123 387T102 408T86 433T73 464T69 500Q69 570 118 612T249 655Q332 655 380 615T429 506Q429 473 418 446T386 399T351 370T317 349Q319 348 337
337T361 321T383 305T407 285T426 263T443 235T452 205T457 168Q457 87 401 38T249 -11Q153 -11 97 36T41 163ZM108 164Q108 106 148 76T249 45Q315 45 352 75T389 157Q389 173 384 188T373 212T355 232T340 244T325 254Q309 264 291 276T266 293T250 302T239 308T231
310T215 305T185 289T149 261T120 219T108 164ZM130 513Q130 504 132 496T137 481T147 466T159 454T176 440T195 427T218 413T244 396Q258 387 264 387Q271 387 293 398T342 438T368 505Q368 552 334 577T249 602Q199 602 165 580T130 513Z" />
<glyph unicode="9" glyph-name="nine" horiz-adv-x="500" d="M45 431Q45 518 81 569Q141 655 252 655Q352 655 403 573Q455 490 455 329Q455 233 431 163T368 57T289 5T207 -11Q133 -11 100 20T67 90Q67 113 80 123T108 134Q124 134 135 123T147 94Q147 81 136
65Q164 45 206 45Q267 45 307 84T361 174T377 288Q312 210 211 210Q124 210 74 296Q45 346 45 431ZM121 414Q121 354 148 312T241 269Q302 269 338 312T374 413Q374 490 346 546T252 602T154 560Q133 534 127 506T121 434V414Z" />
<glyph unicode=":" glyph-name="colon" horiz-adv-x="278" d="M85 53Q85 74 100 89T138 105Q160 105 175 89T191 53Q191 32 176 16T138 0T101 16T85 53ZM85 405Q85 426 100 441T138 457Q160 457 175 441T191 405Q191 384 176 368T138 352T101 368T85 405Z" />
<glyph unicode=";" glyph-name="semicolon" horiz-adv-x="278" d="M85 405Q85 426 100 441T138 457Q160 457 175 441T191 405Q191 384 176 368T138 352T101 368T85 405ZM85 53Q85 75 100 90T138 105Q173 105 187 72T202 -6Q202 -50 187 -95T153 -165T125 -191Q118
-191 104 -178T90 -156Q90 -152 103 -134T129 -80T143 0Q120 1 106 11T89 32T85 53Z" />
<glyph unicode="&lt;" glyph-name="less" horiz-adv-x="778" d="M84 250Q84 254 85 257T88 263T92 269T97 274T103 278T108 281T114 284L117 285L627 550Q657 565 665 565Q677 565 685 557T693 536Q693 532 692 529T690 523T685 517T680 513T674 509T669 505T663
502T658 500L250 288Q210 266 176 250Q188 244 250 212L658 0Q693 -16 693 -36Q693 -48 685 -56T665 -65Q657 -65 627 -50L117 215Q116 215 114 216T110 218T105 221T100 224T95 228T91 232T88 237T85 243T84 250Z" />
<glyph unicode="=" glyph-name="equal" horiz-adv-x="778" d="M56 147Q56 176 93 176H683Q720 176 720 146Q719 117 681 117H96Q56 117 56 147ZM56 353Q56 383 96 383H681Q720 383 720 353Q719 324 682 324H94Q56 324 56 353Z" />
<glyph unicode="&gt;" glyph-name="greater" horiz-adv-x="778" d="M84 -36Q84 -16 119 0L527 212Q589 244 601 250Q589 256 527 288L119 500Q84 516 84 536Q84 548 92 556T112 565Q120 565 150 550L660 285Q661 285 663 284T667 282T672 279T677 276T682 272T686
268T689 263T692 257T693 250Q693 246 692 243T689 237T685 231T680 226T674 222T669 219T664 216L660 215L133 -59Q121 -65 112 -65Q100 -65 92 -57T84 -36Z" />
<glyph unicode="?" glyph-name="question" horiz-adv-x="472" d="M55 556Q55 607 100 653T225 700Q283 700 323 686T382 648T408 601T416 552Q416 502 388 465Q386 462 346 427T279 348T251 245V210Q251 197 247 194T227 190H214Q199 190 196 194T192 212V223Q192
266 197 296Q215 403 296 473Q297 474 304 480T313 488T321 496T329 507T334 519T339 535T340 554Q340 602 312 622T228 642Q152 642 121 585Q135 571 135 553T124 524T96 513Q81 513 68 523T55 556ZM169 53Q169 76 185 91T222 106T258 91T274 53Q274 31 258 16T222
1Q201 1 185 16T169 53Z" />
<glyph unicode="@" glyph-name="at" horiz-adv-x="778" d="M55 348Q55 507 146 603T388 700Q537 700 629 604T721 345Q721 251 691 188T598 124Q547 124 527 182Q469 124 388 124Q300 124 244 184T188 348Q188 450 243 510T387 570Q492 570 545 489Q552 478 560
474T574 471T584 469T588 453V230Q588 184 614 184Q666 184 666 320Q666 324 666 331T665 339Q665 408 647 462T601 549T534 603T461 633T388 641Q264 641 188 562T111 347Q111 216 186 135T393 53Q465 53 525 64T622 86T675 97H696Q719 97 719 89Q719 82 702 73Q558
-5 393 -5Q233 -5 144 93T55 348ZM255 348Q255 264 295 224T389 183Q444 183 483 220T522 316V377Q522 437 483 474T389 512Q328 512 292 468T255 348Z" />
<glyph unicode="A" glyph-name="A" horiz-adv-x="739" d="M34 0V59H119L325 658Q333 682 340 688T366 695H372Q382 695 387 694T399 687T409 670L619 59H704V0H469V59H543L489 214H234L181 59H254V0H34ZM255 273H469L362 583L255 273Z" />
<glyph unicode="B" glyph-name="B" horiz-adv-x="703" d="M50 0V59H139V625H50V683H386Q454 683 503 666T575 620T608 565T618 511Q618 399 477 357Q551 347 598 302T646 185Q646 109 594 60T457 2Q440 0 406 0H50ZM209 59H386Q488 59 529 98T570 188Q570 208
564 228T542 272T489 311T399 326H209V59ZM209 385H358Q359 385 362 385T367 384Q459 384 502 422T545 510Q545 555 510 590T385 625H209V385Z" />
<glyph unicode="C" glyph-name="C" horiz-adv-x="722" d="M55 341Q55 507 150 600T389 694Q505 694 593 603Q602 620 614 644Q632 680 637 686T651 693H653Q666 693 666 672V451Q666 436 661 433T631 429Q618 429 613 431T606 445Q593 524 544 579T414 635Q364
635 319 621T230 576T160 485T133 341Q133 257 160 197T231 106T321 62T417 48Q496 48 547 97T606 216Q607 234 611 238T631 242H644Q666 242 666 224Q666 174 637 122T542 29T390 -11Q241 -11 148 85T55 341Z" />
<glyph unicode="D" glyph-name="D" horiz-adv-x="758" d="M49 0V59H138V625H49V683H377Q452 683 510 661T604 605T662 523T693 431T702 335Q702 305 698 274T680 196T632 105T545 35Q478 0 376 0H49ZM210 59H364Q439 59 492 82T574 146T614 233T626 336Q626 382
619 421T594 499T547 565T472 608T364 625H210V59Z" />
<glyph unicode="E" glyph-name="E" horiz-adv-x="675" d="M48 0V59H137V622H48V680H591L619 427H560Q546 555 537 588Q532 604 523 610T479 619T360 622H212V383H289Q378 383 389 391Q397 398 399 425Q401 469 401 490V500H459V207H401V217Q401 238 399 282Q397
310 389 316Q378 324 290 324H212V59H372Q482 59 516 65Q540 69 548 83Q560 104 584 257Q585 268 588 285H647L605 0H48Z" />
<glyph unicode="F" glyph-name="F" horiz-adv-x="647" d="M48 0V59H137V622H48V680H577L604 427H546Q538 501 534 534T522 587T510 611T490 616H489Q448 622 353 622H212V370H305Q367 370 379 375T393 411Q395 453 395 476V486H453V194H395V205Q395 227 393 269Q393
271 392 276Q390 300 380 305Q368 311 281 311H212V59H323V0H48Z" />
<glyph unicode="G" glyph-name="G" horiz-adv-x="782" d="M55 341Q55 507 151 600T389 694Q507 694 593 603Q602 620 614 644Q632 680 637 686T651 693H653Q666 693 666 672V451Q666 436 661 433T636 429Q623 429 618 430T609 435T606 446T603 466T594 497Q576
548 532 591T416 635Q377 635 340 628T265 599T198 546T151 461T133 340Q133 202 209 125T422 48Q551 48 581 96Q590 112 590 141V233H465V291H735V233H666V19Q666 3 658 3Q644 3 615 48Q541 -11 396 -11Q237 -11 146 87T55 341Z" />
<glyph unicode="H" glyph-name="H" horiz-adv-x="739" d="M48 0V59H137V625H48V683H302V625H213V385H526V625H437V683H690V625H601V59H690V0H437V59H526V326H213V59H302V0H48Z" />
<glyph unicode="I" glyph-name="I" horiz-adv-x="350" d="M44 0V59H137V625H44V683H306V625H213V59H306V0H44Z" />
<glyph unicode="J" glyph-name="J" horiz-adv-x="508" d="M66 111Q66 133 79 144T110 156Q126 156 139 144T152 114Q152 97 137 80Q169 48 222 48Q247 48 265 56T293 79T307 102T313 120Q316 138 316 155V625H200V683H455V625H388V153Q388 106 373 73T331 22T279
-3T224 -11Q156 -11 111 25T66 111Z" />
<glyph unicode="K" glyph-name="K" horiz-adv-x="767" d="M50 0V59H139V625H50V683H300V625H211V302L540 625H484V683H710V625H636Q623 625 618 622T596 602L398 408L634 73Q644 60 658 59H725V0H511V59H566L352 362Q216 228 214 225Q214 224 213 222Q211 216
211 202V59H300V0H50Z" />
<glyph unicode="L" glyph-name="L" horiz-adv-x="619" d="M48 0V59H137V625H48V683H323V625H212V59H340Q440 61 463 67T494 100Q504 138 518 285H577L549 0H48Z" />
<glyph unicode="M" glyph-name="M" horiz-adv-x="906" d="M54 0V59H143V625H54V683H206Q222 683 229 678T243 657L452 83Q458 102 472 140L661 657Q667 673 674 678T698 683H850V625H761V59H850V0H609V59H698V539L697 610Q693 598 685 576T675 548L484 26Q479
11 472 6T450 0Q431 0 424 6T408 36L201 602V59H290V0H54Z" />
<glyph unicode="N" glyph-name="N" horiz-adv-x="739" d="M50 0V59H139V625H50V683H185Q206 683 218 664L541 140V625H452V683H689V625H600V32Q600 21 600 16T593 6T574 0H568Q554 0 548 4T535 20L198 568V59H287V0H50Z" />
<glyph unicode="O" glyph-name="O" horiz-adv-x="778" d="M55 338Q55 501 146 597T389 694Q538 694 629 598T721 340Q721 178 629 84T387 -11Q237 -11 146 84T55 338ZM133 354Q133 268 157 206T221 112T303 66T388 52Q423 52 456 60T524 89T584 143T626 230T643
354Q643 432 620 489T557 576T477 619T389 633T302 620T220 577T157 490T133 354Z" />
<glyph unicode="P" glyph-name="P" horiz-adv-x="675" d="M49 0V59H138V625H49V683H378Q491 683 555 628T619 483Q619 450 608 418T572 354T495 303T373 283H213V59H302V0H49ZM210 342H343Q407 342 450 353T519 403Q540 436 540 484Q540 564 481 599Q438 625 345
625H210V342Z" />
<glyph unicode="Q" glyph-name="Q" horiz-adv-x="778" d="M55 339Q55 501 146 597T388 694Q533 694 627 600T721 340Q721 295 713 252T683 160T619 72T514 10Q521 -16 523 -26T534 -58T551 -89T574 -107T607 -116Q640 -116 665 -89T696 -14Q696 14 711 14Q717
14 722 8T727 -8Q727 -35 721 -64T703 -124T664 -174T603 -194Q588 -194 576 -191T554 -183T535 -168T520 -152T508 -130T499 -107T492 -80T486 -55T480 -27T475 -1Q423 -11 388 -11Q240 -11 148 83T55 339ZM130 338Q130 130 290 67V77Q290 117 320 141T389 166Q463
166 496 71Q646 137 646 336Q646 406 629 460T585 546T523 598T455 626T388 633Q342 633 300 619T218 574T154 482T130 338ZM349 78Q349 68 359 59T391 50Q417 50 457 58Q434 107 390 107Q372 107 361 99T349 78Z" />
<glyph unicode="R" glyph-name="R" horiz-adv-x="731" d="M49 0V59H138V625H49V683H328Q393 683 443 671T522 639T571 595T597 546T604 498Q604 447 574 404T484 336Q501 326 513 315T534 294T549 272T558 250T563 225T565 199T566 169T567 137Q568 79 598 58Q613
48 627 48Q660 48 667 87Q669 96 669 98T673 105T681 111T696 112Q704 112 707 112T716 110T724 104T726 91Q726 57 701 23T629 -11Q606 -11 584 -5T540 16T503 62T489 137V200Q489 233 479 250Q442 312 330 312H210V59H299V0H49ZM210 371H323Q468 371 508 434Q526
462 526 498Q526 570 460 602Q413 625 322 625H210V371Z" />
<glyph unicode="S" glyph-name="S" horiz-adv-x="556" d="M55 9V207Q55 219 59 222T75 227H89Q108 227 112 219L114 194Q117 169 131 140T173 88Q225 48 301 48Q371 48 401 88T432 175Q432 215 412 246T361 292Q345 300 265 319T167 347Q120 368 88 411T55 513Q55
593 108 643T249 694Q351 694 414 622Q441 686 446 691Q450 694 457 694Q471 694 471 673V475Q470 462 466 459T451 456H442Q418 456 414 463Q413 464 410 485T397 530T372 579T324 621T249 638Q187 638 155 604T123 523Q123 455 189 420Q207 411 286 392T386 364Q435
342 467 294T499 183Q499 102 449 46T302 -11Q187 -11 112 61Q92 11 86 1T70 -10Q55 -10 55 9Z" />
<glyph unicode="T" glyph-name="T" horiz-adv-x="722" d="M35 425L55 678H665L685 425H626Q614 563 610 587Q607 601 599 607T567 616T489 619H398V59H523V0H197V59H322V619H231Q177 619 153 616T121 607T110 587Q106 563 94 425H35Z" />
<glyph unicode="U" glyph-name="U" horiz-adv-x="739" d="M48 625V683H302V625H213V240Q213 133 263 87Q305 48 374 48Q448 48 495 92T543 239V625H453V683H690V625H601V243Q601 171 580 119T524 40T451 1T373 -11T294 0T219 38T160 117T137 241V625H48Z" />
<glyph unicode="V" glyph-name="V" horiz-adv-x="739" d="M20 625V683H251V625H180L376 96L573 625H501V683H718V625H636L410 18Q403 2 396 -3T372 -8H365Q346 -8 339 -1T323 30L102 625H20Z" />
<glyph unicode="W" glyph-name="W" horiz-adv-x="1017" d="M19 625V683H241V625H166Q307 158 324 100L340 157L472 594L477 614V625H402V683H624V625H549L678 199L706 100L727 173L864 625H780V683H997V625H922L737 18Q732 2 725 -3T700 -8H696Q678 -8 672 -2T659
27L519 484Q517 490 512 509T502 540Q494 497 459 372L382 110Q351 10 347 4Q338 -8 318 -8H313Q307 -8 302 -7T294 -4T288 1T283 7T281 14T278 23T275 32L94 625H19Z" />
<glyph unicode="X" glyph-name="X" horiz-adv-x="739" d="M27 0V59H123L323 357L153 599Q137 622 131 624Q128 625 120 625H42V683H276V625H221L364 419H365L503 625H444V683H669V625H589Q578 625 574 621T557 600L401 367L617 59H711V0H476V59H531L359 305L193
59H252V0H27Z" />
<glyph unicode="Y" glyph-name="Y" horiz-adv-x="739" d="M15 625V683H251V625H193L377 338L561 625H503V683H723V625H631L416 290Q405 272 405 254V59H494V0H244V59H333V254Q333 272 322 290L107 625H15Z" />
<glyph unicode="Z" glyph-name="Z" horiz-adv-x="611" d="M55 30Q55 35 55 39T57 47T61 55T67 64T77 78T90 96L455 625H322Q233 625 200 620T154 602T137 551Q133 522 128 430H69L80 683H527Q543 683 549 678T555 656Q555 651 555 648T553 641T550 634T546 626T540
617T531 604T520 589L155 61H298Q429 64 450 70Q476 77 483 105Q485 115 489 144Q495 193 501 295H560L543 0H85Q74 0 69 1T59 9T55 30Z" />
<glyph unicode="[" glyph-name="bracketleft" horiz-adv-x="278" d="M104 -250V750H255V691H171V-191H255V-250H104Z" />
<glyph unicode="\" glyph-name="backslash" horiz-adv-x="500" d="M56 720Q56 732 64 740T85 749Q95 749 102 742T112 730T119 711L437 -196Q443 -212 443 -221Q443 -233 434 -241T414 -249T395 -239T385 -225T378 -205L65 686Q56 711 56 720Z" />
<glyph unicode="]" glyph-name="bracketright" horiz-adv-x="278" d="M21 -191H105V691H21V750H172V-250H21V-191Z" />
<glyph unicode="^" glyph-name="asciicircum" horiz-adv-x="611" d="M110 520L305 635L500 520L470 469L305 569L140 469L110 520Z" />
<glyph unicode="_" glyph-name="underscore" horiz-adv-x="778" d="M84 -263T84 -243T114 -223H662Q692 -223 692 -243T664 -263H113Q84 -263 84 -243Z" />
<glyph unicode="`" glyph-name="grave" horiz-adv-x="500" d="M103 631Q103 644 113 655T137 667Q147 667 158 659T231 602Q269 571 295 551L260 505Q255 508 136 591Q124 600 121 602T112 610T105 620T103 631Z" />
<glyph unicode="a" glyph-name="a" horiz-adv-x="489" d="M45 130Q45 157 56 182T96 232T183 272T325 289V312L326 314Q326 316 326 318Q326 408 212 408Q189 408 156 405Q157 380 145 369T116 358Q97 358 87 370T76 399Q76 466 217 466Q299 466 347 428T396 318Q396
317 396 316T395 313V105Q395 89 397 82Q402 64 438 60T476 55Q485 50 485 27Q485 11 479 6T456 0H438Q351 1 335 53Q261 -6 158 -6Q104 -6 75 36T45 130ZM115 132Q115 98 143 76T210 53Q228 53 246 57T283 71T314 101T326 151Q326 154 326 158T325 165V238Q216
234 165 205Q115 178 115 132Z" />
<glyph unicode="b" glyph-name="b" horiz-adv-x="561" d="M24 622V680L174 695V409Q250 463 353 463Q435 463 479 398T523 231Q523 166 506 118T459 45T398 7T333 -5Q243 -5 171 60L166 0H107V594Q107 612 98 617T43 622H24ZM177 159Q177 129 212 91T301 53Q325
53 346 59T392 81T432 135T447 228Q447 405 310 405Q262 405 220 379T177 312V159Z" />
<glyph unicode="c" glyph-name="c" horiz-adv-x="444" d="M37 228Q37 270 47 308T80 384T150 443T259 466Q286 466 304 465T349 458T390 437T405 399Q405 381 394 370T365 358Q326 358 324 402Q292 405 269 405Q194 405 158 369Q112 323 112 233Q112 183 127 146T168
91T219 64T273 56Q305 56 324 73T351 110T363 133Q367 137 391 137Q414 137 414 124Q414 116 406 98T380 55T328 13T249 -5Q155 -5 96 58T37 228Z" />
<glyph unicode="d" glyph-name="d" horiz-adv-x="561" d="M37 228Q37 334 85 399T220 464T385 411V595Q384 614 373 618T314 622H302V680L452 695V88Q452 70 461 65T514 59H536V0L382 -5V58Q305 -5 214 -5Q134 -5 86 58T37 228ZM112 228Q112 175 125 138T160 83T204
60T249 53Q302 53 342 89T382 167V305Q382 306 382 309T383 313Q383 351 345 378T259 405Q233 405 211 399T164 375T126 320T112 228Z" />
<glyph unicode="e" glyph-name="e" horiz-adv-x="444" d="M31 233Q31 338 87 402T236 466Q287 466 324 448T380 398T407 334T415 265Q415 249 408 245T388 240H106Q106 187 120 150T160 93T212 65T272 56Q330 56 354 122Q360 135 365 139T385 143H389Q414 143
414 125Q414 91 367 43T247 -5Q155 -5 93 57T31 233ZM112 295H355Q339 408 237 408T112 295Z" />
<glyph unicode="f" glyph-name="f" horiz-adv-x="306" d="M27 0V59H110V400H32V458H110V537Q110 576 123 606T157 654T203 682T250 696T293 700Q322 700 334 680T347 639Q347 622 336 610T308 598Q294 598 282 607T269 641Q215 640 195 612T175 536V458H292V400H177V59H282V0H27Z"
/>
<glyph unicode="g" glyph-name="g" horiz-adv-x="500" d="M27 -65Q27 -40 40 -9T91 42Q67 80 67 115Q67 157 93 194Q63 241 63 298Q63 372 106 418T221 464Q272 464 319 434Q368 469 421 469Q448 469 466 455T484 419Q484 404 474 394T450 384Q426 384 416 410L385
406L353 398Q380 350 380 299Q380 225 336 180T221 134Q171 134 128 160Q119 138 119 125Q119 105 130 89T162 71Q169 70 183 70H256Q295 70 323 67T382 56T435 27T465 -25Q471 -44 471 -65Q471 -118 419 -159T251 -200Q130 -200 79 -159T27 -65ZM91 -63Q91 -95
126 -119T251 -144Q334 -144 370 -120T407 -66Q407 6 252 6H177Q126 6 109 -15T91 -63ZM130 300Q130 190 221 190T312 298Q312 408 222 408Q130 408 130 300Z" />
<glyph unicode="h" glyph-name="h" horiz-adv-x="561" d="M28 0V59H111V595Q111 613 101 617T47 622H28V680L178 695V443L179 400Q238 464 323 464Q368 464 397 451T439 414T455 369T459 317V59H542V0H306V59H389V314Q389 333 387 345T376 373T346 397T291 405Q241
405 211 369T181 273V59H264V0H28Z" />
<glyph unicode="i" glyph-name="i" horiz-adv-x="283" d="M333 642Q333 665 349 680T386 695T422 680T438 642Q438 620 422 605T386 590Q365 590 349 605T333 642ZM30 0V59H113V356Q113 380 105 385T49 391H34V450L180 464V59H255V0H30Z" />
<glyph unicode="j" glyph-name="j" horiz-adv-x="311" d="M108 642Q108 665 124 680T161 695T197 680T213 642Q213 620 197 605T161 590Q140 590 124 605T108 642ZM-25 -132Q-25 -113 -13 -102T16 -91Q33 -91 44 -102T55 -135V-140Q59 -140 67 -140T79 -141Q147
-140 147 -36V366Q146 383 134 387T74 391H55V450L214 464V-36Q214 -82 198 -116T157 -168T110 -192T66 -200Q29 -200 2 -181T-25 -132Z" />
<glyph unicode="k" glyph-name="k" horiz-adv-x="533" d="M26 0V59H109V595Q109 613 99 617T45 622H26V680L173 695V250L326 400H261V458H494V400H422Q410 400 403 395T354 348Q336 331 325 320L286 283V281L439 59H516V0H318V59H368L244 240Q230 226 208 205Q180
177 175 171T170 152V151V59H253V0H26Z" />
<glyph unicode="l" glyph-name="l" horiz-adv-x="283" d="M30 0V59H113V595Q113 613 103 617T49 622H30V680L180 695V59H264V0H30Z" />
<glyph unicode="m" glyph-name="m" horiz-adv-x="839" d="M28 0V59H111V363Q111 381 101 386T43 391H28V450L176 464V397Q234 464 323 464Q424 464 450 392Q490 435 528 450Q562 464 602 464Q639 464 665 455T705 432T726 397T736 358T738 317V59H821V0H584V59H668V314Q668
333 666 345T655 373T625 397T569 405Q519 405 489 369T459 273V59H543V0H306V59H389V314Q389 333 387 345T376 373T346 397T291 405Q241 405 211 369T181 273V59H264V0H28Z" />
<glyph unicode="n" glyph-name="n" horiz-adv-x="561" d="M28 0V59H111V363Q111 381 101 386T43 391H28V450L176 464V397Q234 464 322 464Q368 464 397 451T439 414T455 369T459 317V59H542V0H306V59H389V314Q389 333 387 345T376 373T346 397T291 405Q241 405
211 369T181 273V59H264V0H28Z" />
<glyph unicode="o" glyph-name="o" horiz-adv-x="500" d="M31 227Q31 336 90 401T249 466Q346 466 406 401T467 228T407 58T249 -5T92 57T31 227ZM106 239Q106 56 249 56Q391 56 391 238Q391 408 249 408Q106 408 106 239Z" />
<glyph unicode="p" glyph-name="p" horiz-adv-x="561" d="M24 -136H107V365Q106 382 96 386T42 391H24V450L174 464V408Q251 463 357 463Q437 463 480 399T523 231Q523 109 466 52T333 -5Q246 -5 177 55V-136H260V-195H24V-136ZM177 163Q177 126 213 90T301 53Q360
53 403 97T447 229Q447 317 407 359T309 402Q262 402 220 376T177 311V163Z" />
<glyph unicode="q" glyph-name="q" horiz-adv-x="533" d="M37 227Q37 291 54 339T99 413T159 451T223 464Q316 464 391 396L397 464H452V-136H536V-195H299V-136H382V65Q308 -5 217 -5Q137 -5 87 57T37 227ZM113 229Q113 145 152 99T249 53Q306 53 345 98T385
189V285Q385 324 350 363T259 402Q202 402 158 360T113 229Z" />
<glyph unicode="r" glyph-name="r" horiz-adv-x="392" d="M24 0V59H107V363Q107 381 97 386T39 391H24V450L169 464V394Q221 463 291 463Q322 463 342 447T363 405Q363 388 352 377T324 366Q311 366 299 375T285 405Q233 396 203 350Q174 305 174 228V59H279V0H24Z" />
<glyph unicode="s" glyph-name="s" horiz-adv-x="394" d="M33 21V160Q33 172 37 176T59 181Q71 181 77 181T87 176T92 170T95 156T101 137Q127 53 200 53Q254 53 275 76T296 128Q296 140 292 151T282 169T267 183T250 193T232 200T215 204T201 208L193 209Q192
209 183 210T166 214T144 220T119 229T94 241T71 258T51 279T38 307T33 341Q33 363 39 382T62 422T111 454T192 466Q249 466 289 435Q291 438 293 442T297 448T301 453T305 457T308 461T312 464T316 465T321 466Q332 466 334 460T336 441V337Q336 318 331 314T304
309Q295 309 290 309T282 313T279 319T277 328T275 341Q273 355 267 368T240 396T186 411Q137 411 118 392T98 349Q98 326 116 311T154 290T207 278T254 267Q294 254 327 220T361 133Q361 109 355 88T332 44T283 9T201 -5Q134 -5 86 43Q84 40 80 32T73 19T66 8T58
-2T48 -5Q42 -5 37 -1Q33 2 33 21Z" />
<glyph unicode="t" glyph-name="t" horiz-adv-x="389" d="M18 400V458Q68 462 90 508T114 655H173V458H316V400H173V138Q173 56 222 56Q246 56 261 80Q274 101 274 144V192H333V137Q333 97 318 67T278 23T233 2T193 -5Q167 -5 149 6T123 32T109 69T104 104T103
135V400H18Z" />
<glyph unicode="u" glyph-name="u" horiz-adv-x="561" d="M28 391V450L181 464V136Q181 90 196 72T265 53Q313 53 351 83T389 183V359Q389 381 380 386T320 391H306V450L459 464V89Q459 68 469 64T527 59H542V0L392 -5V60Q327 -5 229 -5Q197 -5 174 4T139 25T121
58T113 94T111 131V364Q111 381 100 386T48 391H28Z" />
<glyph unicode="v" glyph-name="v" horiz-adv-x="533" d="M20 400V458H231V400H164L253 140L270 84L285 131L377 400H310V458H513V400H436Q430 379 416 341T399 294L306 25Q299 6 293 1T269 -4H265Q247 -4 240 2T225 29L135 290Q105 376 97 400H20Z" />
<glyph unicode="w" glyph-name="w" horiz-adv-x="728" d="M19 400V458H226V400H157Q242 114 247 84Q253 120 293 252T333 389Q333 390 333 394T332 400H261V458H459V400H390L484 84L579 400H501V458H708V400H637L524 30Q519 15 517 10T507 0T485 -4H480Q465 -4
459 1T447 22Q428 85 412 138T387 218T373 266T363 297T357 315Q345 237 280 22Q275 7 268 2T246 -4H240Q224 -4 218 1T204 28L90 400H19Z" />
<glyph unicode="x" glyph-name="x" horiz-adv-x="533" d="M14 0V59H104L229 237L111 400H20V458H227V400H179L263 285H264L344 400H295V458H502V400H427Q415 399 407 390Q402 384 298 238V236L427 59H518V0H311V59H359L264 190L172 59H220V0H14Z" />
<glyph unicode="y" glyph-name="y" horiz-adv-x="533" d="M20 400V458H231V400H164Q250 162 270 84L311 209L377 400H310V458H513V400H436L282 -39Q271 -70 265 -86T242 -126T204 -167Q163 -200 114 -200Q78 -200 51 -179T23 -127Q23 -109 34 -99T61 -88Q76 -88
88 -98T100 -127Q100 -130 98 -140Q100 -140 105 -140T112 -141Q128 -141 142 -137T166 -126T186 -110T200 -92T212 -71T220 -51T225 -33T230 -19Q235 -6 235 -1Q235 3 230 18L97 400H20Z" />
<glyph unicode="z" glyph-name="z" horiz-adv-x="446" d="M27 29Q27 33 27 36T28 42T30 48T32 52T35 57T38 61T42 65T46 71L301 400H216Q160 400 141 397T116 386T106 350L100 260H41L52 458H371Q386 458 392 453T399 431Q399 425 399 421T396 411T392 404T386
396T379 388L126 61H204Q248 61 264 61T299 64T320 73T327 88T333 114Q333 116 333 117Q335 133 343 223H402L385 0H54Q41 0 35 4T28 13T27 29Z" />
<glyph unicode="{" glyph-name="braceleft" horiz-adv-x="500" d="M54 242V255Q54 265 55 270T60 277T69 279T85 281T109 285Q150 294 178 317T213 370Q215 380 215 401V610Q215 629 216 640T227 672T259 709Q312 750 405 750H419Q430 750 435 750T442 744T445
737T445 723V712Q445 704 444 700T438 694T429 692T415 691T395 690Q333 685 309 668T285 615V403Q285 338 249 300Q216 264 166 250Q204 239 230 219T267 176T281 138T285 107V-113Q285 -135 291 -147Q303 -170 336 -180T402 -191T437 -193Q445 -196 445 -215V-229Q445
-241 441 -245T426 -250H411Q373 -250 341 -244T279 -224T232 -181T215 -114V99Q215 123 212 135Q202 173 163 195T77 220Q67 221 63 222T57 227T54 242Z" />
<glyph unicode="|" glyph-name="bar" horiz-adv-x="278" d="M118 -219V712Q118 749 138 749T158 719V-212Q158 -249 138 -249T118 -219Z" />
<glyph unicode="}" glyph-name="braceright" horiz-adv-x="500" d="M54 -215Q54 -208 55 -204T57 -197T63 -193T72 -192T86 -191T104 -190Q142 -187 166 -179T200 -159T212 -138T215 -114V102Q215 210 334 250Q215 290 215 395V613Q215 628 213 637T202 657T175
676Q138 691 99 691Q95 691 89 691T79 690Q65 690 60 694T54 715V729Q54 741 58 745T74 750H89Q187 750 239 710Q285 675 285 614V401Q285 377 288 366Q297 331 333 308T424 280Q439 279 442 274T445 253V244Q445 234 444 230T439 223T429 221T413 219T390 215Q349
206 322 184T287 130Q285 120 285 99V-118Q285 -156 267 -183T220 -224T160 -244T99 -250H75Q62 -250 58 -246T54 -227V-215Z" />
<glyph unicode="~" glyph-name="asciitilde" horiz-adv-x="611" d="M83 595Q87 601 99 616T116 638T131 655T149 672T166 683T188 691T211 694Q240 694 301 669T392 644Q413 644 432 654T458 671T481 695L527 658Q522 652 512 639T498 620T484 604T470 588T455
576T438 566T420 561T399 558Q370 558 309 583T219 608Q174 608 129 558L83 595Z" />
</font>
</defs>
</svg>
