<?xml version="1.0" standalone="no"?> <!DOCTYPE svg PUBLIC "-//W3C//DTD SVG 1.0//EN" "http://www.w3.org/TR/2001/REC-SVG-20010904/DTD/svg10.dtd" > <svg xmlns="http://www.w3.org/2000/svg" width="100%" height="100%">
<defs >
<font id="cmunoti" horiz-adv-x="467" ><font-face
    font-family="CMU Concrete"
    units-per-em="1000"
    panose-1="2 0 6 3 0 0 0 0 0 0"
    ascent="912"
    descent="-263"
    alphabetic="0" />
<missing-glyph horiz-adv-x="760" d="M10 10V765H750V10H10ZM70 112L346 388L70 663V112ZM105 70H655L380 346L105 70ZM105 705L380 429L655 705H105ZM414 388L690 112V663L414 388Z" />
<glyph unicode=" " glyph-name="space" horiz-adv-x="358" />
<glyph unicode="!" glyph-name="exclam" horiz-adv-x="328" d="M122 44Q122 69 142 87T185 106Q204 106 217 94T230 63Q230 40 212 20T167 0Q149 0 136 12T122 44ZM184 202Q184 204 187 222L270 641Q283 705 337 705Q355 705 367 694T380 665Q380 651 375 636L248
218Q242 197 238 193T212 189H207Q184 189 184 202Z" />
<glyph unicode="&quot;" glyph-name="quotedbl" horiz-adv-x="550" d="M258 389Q258 390 311 640Q322 700 361 700Q375 700 385 691T395 668Q395 664 320 400Q316 386 312 380T304 373T288 371H285Q258 371 258 389ZM426 389Q479 656 487 673Q499 700 529 700Q543
700 552 691T562 668Q562 664 488 399Q485 388 483 383T475 375T468 372T455 371H452Q426 371 426 389Z" />
<glyph unicode="#" glyph-name="numbersign" horiz-adv-x="883" d="M117 147Q117 176 157 176H322L397 324H208Q169 324 169 354Q169 383 208 383H428Q428 383 446 419L572 663Q588 693 607 693Q619 693 627 685T635 665Q635 656 590 569Q539 470 494 383H649L667
419L793 663L796 668Q799 674 800 676T804 682T810 688T817 691T827 693Q839 693 847 685T856 665Q856 656 811 569Q760 470 715 383H842Q856 383 863 382Q874 381 881 373T889 353Q889 324 849 324H684L609 176H798Q837 176 837 146Q837 117 799 117H578L433 -164Q417
-194 399 -194Q387 -194 379 -186T371 -165Q371 -160 373 -154T378 -143L380 -138L512 117H357L212 -164Q196 -194 178 -194Q166 -194 158 -186T150 -165Q150 -160 152 -154T156 -143L159 -138L291 117H155Q133 117 125 127T117 147ZM388 176H543L618 324H463L388
176Z" />
<glyph unicode="$" glyph-name="dollar" horiz-adv-x="550" d="M120 135Q120 231 174 231Q188 231 197 222T206 200Q206 178 181 159V147Q181 72 258 55L327 332Q203 364 203 474Q203 494 208 518T229 573T268 628T331 672T419 699Q426 733 431 741T455 750H461Q485
750 485 731Q485 724 478 698Q603 679 603 566Q603 477 550 477Q536 477 527 486T518 508Q518 532 543 549Q543 626 463 639L401 390Q464 375 493 335T522 241Q522 160 464 84T303 -4Q302 -9 300 -17T297 -28T295 -37T292 -44T289 -49T285 -52T280 -54T274 -56T265
-56H261Q236 -56 236 -37Q236 -26 243 -3Q184 4 152 40T120 135ZM270 494Q270 464 287 440T345 406L403 639Q365 631 337 613T296 572T276 530T270 494ZM318 56Q387 72 421 122T455 222Q455 296 383 317L318 56Z" />
<glyph unicode="%" glyph-name="percent" horiz-adv-x="883" d="M155 -35Q155 -25 169 -11L737 603Q692 593 652 593Q578 593 505 627Q503 564 480 501T411 393T309 347Q270 347 238 375T206 471Q206 530 229 593T299 703T405 750Q418 750 429 748T451 739T466
729T480 717T490 708Q560 648 657 648Q716 648 767 671T850 726Q872 749 881 749Q900 749 900 725Q907 720 907 713Q907 705 889 688T848 655T823 637L808 622L199 -38Q183 -54 174 -54Q166 -54 161 -49T155 -35ZM268 472Q268 406 320 406Q373 406 410 477T448
616Q448 658 432 674T394 691Q359 691 332 662T293 591T274 519T268 472ZM550 68Q550 124 571 186T640 298T749 347Q788 347 818 319T849 224Q849 168 828 106T759 -5T653 -55Q613 -55 582 -27T550 68ZM611 70Q611 33 626 18T663 3Q699 3 730 39T776 123T792 213Q792
251 777 269T739 288Q695 288 663 243Q637 207 624 152T611 70Z" />
<glyph unicode="&amp;" glyph-name="ampersand" horiz-adv-x="828" d="M133 187Q133 222 149 276T205 386Q212 395 212 406Q212 409 211 418T210 435Q210 477 225 522T267 609T340 678T439 705Q491 705 525 677T560 602Q560 568 545 553T510 538Q496 538 487 546T478
569Q478 590 499 607Q480 647 429 647Q395 647 368 630T325 590T298 537T284 489T278 456Q338 492 392 492Q426 492 443 473T460 424Q460 378 430 337T347 295Q284 295 246 333Q207 248 207 192Q207 47 424 47Q538 47 613 91T720 246Q731 288 731 316Q731 374 688
437Q588 388 588 347Q588 332 608 319Q622 328 635 328T656 320T665 299Q665 285 654 271T617 256Q585 256 557 276T528 337Q528 366 546 392T582 432T639 470T687 500Q753 546 788 632Q782 642 782 652Q782 668 796 681T826 694Q839 694 847 686T856 665Q856 653
848 626T811 554T741 473Q791 409 791 326Q791 295 784 258T752 171T689 83T579 17T416 -11Q348 -11 296 2T214 36T165 83T140 136T133 187ZM286 390Q310 353 353 353Q373 353 383 363T400 406Q401 410 401 417Q401 433 381 433Q333 433 286 390Z" />
<glyph unicode="&apos;" glyph-name="quotesingle" horiz-adv-x="328" d="M231 389Q231 395 284 641Q284 642 285 647T287 656T290 665T294 675T300 685T308 693T319 698T334 700Q348 700 358 691T368 668Q368 664 293 400Q289 386 285 380T276 373T260 371H258Q231
371 231 389Z" />
<glyph unicode="(" glyph-name="parenleft" horiz-adv-x="439" d="M141 36Q141 228 227 423T471 736Q489 750 505 750H519Q540 750 540 742Q540 735 522 722Q420 644 346 522T239 277T205 38Q205 -30 219 -86T249 -170T280 -218T294 -242Q294 -250 276 -250H257Q249
-250 245 -249T229 -235T201 -197Q141 -100 141 36Z" />
<glyph unicode=")" glyph-name="parenright" horiz-adv-x="439" d="M23 -241Q23 -235 42 -221Q144 -142 217 -20T324 225T358 462Q358 530 344 586T314 669T283 717T269 741Q269 750 286 750H306Q326 750 355 706Q422 605 422 455Q422 346 390 226T280 -25T90
-238Q74 -250 57 -250H42Q23 -250 23 -241Z" />
<glyph unicode="*" glyph-name="asterisk" horiz-adv-x="550" d="M195 416Q195 432 207 441T259 471Q269 476 275 479Q329 507 357 520Q339 534 319 547T286 569T263 584T248 598T243 612Q243 625 255 637T281 649Q291 649 305 639T391 568Q402 619 414 676Q425
725 430 732Q442 749 461 749Q471 749 478 743T485 726Q485 721 442 568Q576 646 583 648Q586 649 590 649Q598 649 606 643T614 625Q614 621 613 618T611 612T608 606T603 601T596 596T588 591T577 585T565 579T551 571T534 563Q462 525 452 521Q475 503 508 482T553
451T565 428Q565 414 553 404T527 393Q518 393 506 402T418 474Q407 423 395 366Q384 317 379 310Q366 292 348 292Q338 292 331 299T324 316Q324 321 367 474Q233 396 225 394Q222 393 218 393Q209 393 202 399T195 416Z" />
<glyph unicode="+" glyph-name="plus" horiz-adv-x="828" d="M144 250Q144 280 183 280H453Q456 292 520 547Q527 583 552 583Q564 583 572 574T581 554Q581 547 577 533L514 280H768Q808 280 808 250Q808 221 770 221H499L433 -43Q424 -83 400 -83Q389 -83 381
-75T372 -53L439 221H182Q144 221 144 250Z" />
<glyph unicode="," glyph-name="comma" horiz-adv-x="328" d="M76 -157Q76 -152 93 -135T133 -81T168 0Q122 2 122 41Q122 66 141 86T187 106Q233 106 233 46Q233 -6 205 -64T147 -157T104 -192Q97 -192 87 -178T76 -157Z" />
<glyph unicode="-" glyph-name="hyphen" horiz-adv-x="383" d="M90 215Q90 234 100 252Q106 262 122 262H337Q363 262 363 244Q359 207 345 199Q340 197 330 197H115Q90 197 90 215Z" />
<glyph unicode="." glyph-name="period" horiz-adv-x="328" d="M123 43Q123 67 142 86T187 106Q206 106 218 94T231 63Q231 40 212 20T166 0Q147 0 135 12T123 43Z" />
<glyph unicode="/" glyph-name="slash" horiz-adv-x="550" d="M26 -221Q26 -217 28 -212T34 -198T42 -184T54 -164T67 -142L587 724Q604 749 619 749Q631 749 639 741T648 721Q648 712 632 685L93 -214Q92 -215 89 -221T83 -231T76 -239T66 -246T54 -249Q43 -249
35 -241T26 -221Z" />
<glyph unicode="0" glyph-name="zero" horiz-adv-x="550" d="M124 154Q124 213 149 313Q161 362 172 398T207 486T260 572T335 631T437 656Q584 656 584 491Q584 425 560 332Q527 193 482 120Q402 -11 271 -11Q124 -11 124 154ZM196 156Q196 48 287 48Q344 48
390 96Q425 133 447 193T497 370Q515 442 515 493Q515 597 423 597Q385 597 354 579T304 535T268 468T243 397T224 322Q220 305 218 297Q218 296 215 285T209 261T203 230T198 193T196 156Z" />
<glyph unicode="1" glyph-name="one" horiz-adv-x="550" d="M133 18Q133 25 137 38T150 56Q158 59 165 59H267L380 511Q314 465 265 465Q244 465 244 483Q244 489 245 493Q250 514 255 519T279 525T318 535Q358 551 388 581T433 631T460 652Q478 652 478 635Q478
634 472 607L335 59H431Q454 59 454 41Q454 33 450 19T437 2Q433 0 424 0H160Q133 0 133 18Z" />
<glyph unicode="2" glyph-name="two" horiz-adv-x="550" d="M79 0Q79 9 88 34T116 95T172 173T256 242Q274 253 306 268T364 296T418 327T466 368T499 423T512 495Q512 550 479 573T400 597Q327 597 274 542T221 441Q221 417 240 417Q265 417 289 449T313 505Q313
512 309 521T304 535Q304 543 321 557T346 572Q356 572 365 553T374 515Q374 468 330 413T228 357Q198 357 180 377T161 430Q161 504 235 580T409 656Q486 656 535 615T584 496Q584 374 474 298Q430 267 373 242T274 188T189 107Q229 106 295 83T394 60Q435 60
463 91T506 162Q507 164 508 167T509 172T511 175T514 179T518 181T523 182T531 183H547Q567 183 567 171T555 132T521 71T462 14T383 -11Q346 -11 278 18T186 48Q176 48 172 47Q155 42 144 18T130 -9Q127 -11 115 -11H102Q88 -11 84 -9T79 0Z" />
<glyph unicode="3" glyph-name="three" horiz-adv-x="550" d="M100 118Q100 158 115 174T151 191Q166 191 175 183T184 161Q184 140 160 120Q173 47 261 47Q314 47 352 64T410 109T437 164T445 221Q445 306 343 306H310Q291 306 291 318Q291 329 298 350Q302 364
320 364H351Q434 364 477 403Q501 425 514 458T527 520Q527 597 426 597Q357 597 311 562T264 492Q264 472 282 472Q293 472 303 482T314 506Q314 512 310 522T305 536Q305 542 322 557T348 572T365 553T374 514Q374 475 343 444T270 412Q241 412 223 431T204 481Q204
546 273 601T437 656Q508 656 551 622T594 524Q594 466 560 413T470 332Q483 319 490 311T507 277T517 221Q517 112 438 51T250 -11Q180 -11 140 26T100 118Z" />
<glyph unicode="4" glyph-name="four" horiz-adv-x="550" d="M50 38Q50 47 59 53T102 83T175 150Q242 220 294 307T369 456T409 572T427 630Q440 655 463 655Q491 655 491 628Q491 621 483 589T453 496T398 369T308 224T183 81H188Q202 81 216 80T239 77T263 71T284
64T309 55T335 46Q375 210 381 227Q392 255 419 255Q432 255 439 248T447 228Q447 224 436 178T413 83T399 30H424Q443 30 459 32T476 35Q485 35 496 20T507 -1Q507 -12 469 -20T408 -29Q392 -29 384 -28Q384 -29 377 -62T360 -131T347 -172Q334 -194 311 -194Q300
-194 292 -187T284 -167Q284 -162 321 -13Q309 -9 290 -2T260 8T236 15T207 20T175 22Q144 22 125 19T100 13T90 6T79 3Q71 3 61 17T50 38Z" />
<glyph unicode="5" glyph-name="five" horiz-adv-x="550" d="M107 116Q107 157 123 173T159 189Q173 189 182 180T192 157Q192 134 167 116Q174 80 202 63T269 45Q313 45 347 62T402 104T436 160T455 218T460 267Q460 351 377 351Q307 351 254 301Q240 287 236
285T216 283H211Q187 283 187 301Q187 308 193 330L268 630Q275 654 281 654Q284 654 303 647T355 632T427 624Q466 624 503 631T563 646T586 654Q595 654 595 643Q595 639 591 623T583 602Q578 596 551 586T478 567T388 558Q352 558 312 567L264 373Q328 410 388
410Q454 410 493 372T532 266Q532 157 456 73T259 -11Q192 -11 150 24T107 116Z" />
<glyph unicode="6" glyph-name="six" horiz-adv-x="550" d="M127 163Q127 224 148 310T202 459Q232 516 272 557T352 618T426 647T491 656Q534 656 566 638T599 577Q599 544 584 529T549 514Q535 514 526 522T517 544Q517 563 536 582Q517 603 481 603Q407 603
339 543T236 360Q322 435 420 435Q457 435 483 420T521 382T538 337T543 296Q543 262 531 212T500 128Q490 109 475 90T432 45T363 5T275 -11Q251 -11 229 -5T182 17T142 71T127 163ZM196 154Q196 45 286 45Q349 45 394 88Q423 117 435 145T462 234Q470 270 470
288Q470 325 450 350T380 376Q307 376 252 316T196 154Z" />
<glyph unicode="7" glyph-name="seven" horiz-adv-x="550" d="M139 460Q139 465 225 639Q230 650 235 653T251 656H265Q287 656 287 647Q287 643 274 615Q347 656 403 656Q424 656 438 645T459 619T476 593T504 581Q555 581 606 640Q619 656 637 656H648Q671 656
671 646Q671 641 651 613T597 533T525 414T446 246T376 37Q363 -11 329 -11Q316 -11 307 -3T298 19Q298 37 317 97T381 259T485 457L529 528Q507 522 493 522Q464 522 438 553T389 584Q341 584 289 553T205 473Q195 457 191 454T177 450H157Q139 450 139 460Z"
/>
<glyph unicode="8" glyph-name="eight" horiz-adv-x="550" d="M101 120Q101 190 151 252T291 351V352Q290 353 282 359T270 367T258 377T245 390T234 405T224 423T218 444T215 469Q215 538 275 597T436 656Q501 656 543 628T586 542Q586 483 545 431T428 347Q432
344 449 332T472 314T492 294T512 269T523 240T529 203Q529 126 461 58T273 -11Q199 -11 150 21T101 120ZM168 130Q168 86 201 66T284 45Q364 45 411 87T459 182Q459 193 458 201T451 218T441 232T424 249T403 266T375 287T341 313Q256 283 212 235T168 130ZM280
492Q280 485 281 479T284 468T291 457T301 446T315 433T332 420T355 403T381 383Q524 440 524 532Q524 569 496 586T427 603Q363 603 322 571T280 492Z" />
<glyph unicode="9" glyph-name="nine" horiz-adv-x="550" d="M111 69Q111 101 126 116T161 131Q176 131 184 123T193 101Q193 82 175 64V63Q201 45 239 45Q314 45 377 105T474 285Q387 209 290 209Q253 209 227 224T189 263T172 308T167 349Q167 382 179 433T211
519Q221 537 237 556T280 600T349 640T439 656Q463 656 484 650T530 628T568 575T583 484Q583 432 565 348T512 193Q465 98 390 44T230 -11Q178 -11 145 8T111 69ZM240 356Q240 320 260 294T331 268Q402 268 458 329T514 496Q514 602 429 602Q363 602 315 556Q284
526 265 476T243 391L240 356Z" />
<glyph unicode=":" glyph-name="colon" horiz-adv-x="328" d="M211 396Q211 420 230 439T275 459Q294 459 306 447T319 416Q319 393 300 373T254 353Q235 353 223 365T211 396ZM123 43Q123 67 142 86T187 106Q206 106 218 94T231 63Q231 40 212 20T166 0Q147 0
135 12T123 43Z" />
<glyph unicode=";" glyph-name="semicolon" horiz-adv-x="328" d="M211 396Q211 420 230 439T275 459Q294 459 306 447T319 416Q319 393 300 373T254 353Q235 353 223 365T211 396ZM76 -157Q76 -152 93 -135T133 -81T168 0Q122 2 122 41Q122 66 141 86T187 106Q233
106 233 46Q233 -6 205 -64T147 -157T104 -192Q97 -192 87 -178T76 -157Z" />
<glyph unicode="&lt;" glyph-name="less" horiz-adv-x="828" d="M171 250Q171 255 172 258T176 265T181 271T188 276T195 280T203 284T210 287L802 559Q816 565 823 565Q835 565 843 557T851 536Q851 529 849 524T841 515T832 509T820 503T810 498L346 285Q278
253 263 247V246L679 -2Q708 -19 708 -37Q708 -48 699 -56T679 -65Q669 -65 657 -58L198 216Q171 232 171 250Z" />
<glyph unicode="=" glyph-name="equal" horiz-adv-x="828" d="M117 147Q117 170 142 175Q149 176 164 176H743Q781 176 781 146Q781 117 743 117H156Q117 117 117 147ZM169 353Q169 383 207 383H794Q833 383 833 353Q833 324 794 324H207Q169 324 169 353Z" />
<glyph unicode="&gt;" glyph-name="greater" horiz-adv-x="828" d="M100 -36Q100 -29 102 -24T110 -15T119 -9T131 -3T141 2L654 238Q665 243 689 253Q676 262 651 276T619 295L272 502L268 504Q264 507 260 509T252 516T246 525T243 537Q243 548 252 556T272
565Q282 565 312 547L753 283Q780 267 780 250Q780 245 779 242T775 235T770 229T763 224T756 220T748 216T741 213L149 -60Q137 -65 128 -65Q116 -65 108 -57T100 -36Z" />
<glyph unicode="?" glyph-name="question" horiz-adv-x="550" d="M204 490Q204 506 214 532T246 588T296 645T365 688T449 706Q510 706 546 675T582 587Q582 503 514 439Q496 423 363 332Q322 305 322 269Q322 249 341 249Q356 249 373 260T399 288Q405 299 409
301T429 303H433Q459 303 459 292Q459 267 419 229T325 190Q294 190 277 208T259 258Q259 311 296 354Q310 370 383 419T465 475Q519 517 519 577Q519 610 498 628T439 647Q390 647 345 615T274 528Q283 516 283 505Q283 488 269 474T236 459Q223 459 214 467T204
490ZM234 44Q234 70 254 88T297 106Q316 106 328 94T341 63Q341 40 323 20T278 0Q260 0 247 12T234 44Z" />
<glyph unicode="@" glyph-name="at" horiz-adv-x="828" d="M153 240Q153 327 192 423T303 588Q422 700 587 700Q709 700 778 635T847 455Q847 393 827 319T760 185T656 124Q608 124 600 182Q530 124 446 124Q384 124 338 160T291 277Q291 325 308 375T357 469T441
542T554 570Q668 570 699 472H708Q727 472 727 460Q727 453 697 335T667 204Q667 183 684 183Q728 183 759 279T790 441Q790 535 733 588T576 641Q492 641 421 605T306 513T236 389T211 254Q211 216 221 183T254 120T322 71T431 53Q548 53 676 88Q711 97 732 97H748Q766
97 766 88Q766 78 714 56T576 14T419 -6Q293 -6 223 59T153 240ZM356 288Q356 231 386 207T457 183Q515 183 557 217T621 295Q626 306 637 349T648 408Q648 449 623 480T544 512Q460 512 408 440T356 288Z" />
<glyph unicode="A" glyph-name="A" horiz-adv-x="789" d="M63 18Q63 24 67 37T78 55T104 59H158Q170 81 196 123L520 670Q529 686 538 691T562 696H573Q583 696 588 695T596 686T599 678T601 665L642 226Q644 198 650 143T658 59H710Q738 59 738 41Q738 34 734
21T723 3Q718 0 707 0H526Q502 0 502 17Q502 25 505 34Q509 51 515 55T536 59H584L569 216H313L220 59H260Q288 59 288 39Q288 12 273 3Q268 0 257 0H89Q63 0 63 18ZM349 275H564L535 588L349 275Z" />
<glyph unicode="B" glyph-name="B" horiz-adv-x="753" d="M81 18Q81 25 85 38T96 56Q102 59 110 59H180L321 625H266Q238 625 238 643Q238 674 253 681Q258 683 268 683H542Q548 683 558 683T574 684Q711 684 754 621Q775 592 775 550Q775 496 740 448T642 374Q626
367 592 357Q649 349 685 317T722 227Q722 203 714 175T685 116T634 59T553 17T442 0H103Q81 0 81 18ZM247 59H425Q488 59 534 75T604 118T638 169T649 221Q649 326 505 326H314L247 59ZM329 385H478Q541 385 588 401T659 441T693 490T704 536Q704 570 678 596T587
625H389L329 385Z" />
<glyph unicode="C" glyph-name="C" horiz-adv-x="772" d="M151 236Q151 297 169 361T224 484T312 591T434 666T586 695Q701 695 768 602Q798 646 815 667T836 691T847 694Q860 694 860 683Q860 680 832 566T802 447Q797 429 779 429H774Q753 429 748 431T742 442Q742
444 742 455T743 476Q743 502 737 527T715 578T671 620T601 636Q544 636 491 620T387 569T298 476T240 337Q227 287 227 243Q227 187 247 147T302 86T373 56T449 47Q527 47 592 96T684 217Q685 220 686 223T688 229T690 233T692 237T696 239T702 241T709 242H724Q747
242 747 231Q747 229 743 215Q712 120 618 55T413 -11Q378 -11 344 -5T274 19T212 63T168 134T151 236Z" />
<glyph unicode="D" glyph-name="D" horiz-adv-x="808" d="M80 18Q80 59 114 59H179L320 625H262Q237 625 237 643Q237 664 247 676Q254 684 268 684Q269 684 271 684T275 683H546Q552 683 563 683T579 684Q650 684 700 664T777 608T814 534T826 450Q826 399 813
343T769 224T691 113T571 32T408 0H110Q80 0 80 18ZM249 59H401Q666 59 737 331Q753 393 753 442Q753 625 548 625H391L249 59Z" />
<glyph unicode="E" glyph-name="E" horiz-adv-x="725" d="M79 18Q79 25 83 38T94 56Q100 59 108 59H178L318 622H256Q235 622 235 640Q235 668 248 677Q255 681 265 681H756Q781 681 781 660Q781 647 756 455Q754 436 748 432T723 428H722Q708 428 703 432T697
450Q697 456 703 508T710 594Q710 605 709 609T693 617T650 621T564 622H392L332 383Q343 383 364 383T397 382Q482 382 499 384T521 399Q527 412 533 434T543 473T553 494Q562 500 578 500Q589 500 597 495T604 480Q604 475 542 229Q537 207 515 207H509Q483 207
483 225Q483 233 490 264T501 320Q465 324 419 324H317L251 59H410Q497 59 536 63T583 71T598 89Q625 136 676 263Q682 279 688 282T709 286H711Q737 286 737 270Q737 261 637 20Q632 8 627 4T608 0H101Q79 0 79 18Z" />
<glyph unicode="F" glyph-name="F" horiz-adv-x="697" d="M79 18Q79 46 93 55Q98 59 108 59H178L318 622H257Q235 622 235 640Q235 644 237 654T241 669T249 677T265 681H743Q767 681 767 660Q767 647 742 455Q740 436 734 432T709 428H708Q682 428 682 448Q682
453 689 513T696 594Q696 611 685 616Q669 622 551 622H392L329 370H424Q462 370 476 370T501 375T513 384T520 405T529 437T534 460T538 474T544 483T553 486T568 487Q596 487 596 470Q596 468 533 216Q528 195 507 195H501Q474 195 474 212Q474 220 481 251T493
308Q466 311 412 311H314L251 59H334Q357 59 357 41Q355 7 339 2Q331 0 326 0H106Q79 0 79 18Z" />
<glyph unicode="G" glyph-name="G" horiz-adv-x="832" d="M151 236Q151 313 180 392T262 540T400 651T586 695Q701 695 768 602Q798 646 815 667T836 691T847 694Q860 694 860 683Q860 681 846 623T817 507T802 447Q798 435 794 432T779 429H763Q750 429 746 432T742
444Q742 447 742 457T743 475Q743 544 707 590T602 636Q527 636 463 611T357 545T284 452T241 346T227 243Q227 189 246 150T298 89T370 57T456 47Q491 47 520 51T569 60T603 74T626 91T641 110T649 128T653 145T656 158Q659 170 665 195T675 233H579Q556 233 556
250Q556 258 560 272T573 289Q577 291 584 291H801Q827 291 827 273Q827 247 814 237Q809 233 792 233H749Q736 183 719 113Q700 36 695 20T684 3Q672 3 654 47Q574 -11 421 -11Q293 -11 222 54T151 236Z" />
<glyph unicode="H" glyph-name="H" horiz-adv-x="789" d="M79 18Q79 24 83 37T94 55T121 59H178L319 625H263Q254 625 249 626T240 631T236 644Q236 672 250 680Q257 684 267 684Q268 684 270 684T273 683H466Q490 683 490 666Q490 658 487 649Q482 625 460 625H392L333
385H647L707 625H652Q624 625 624 644Q624 672 638 680Q645 684 655 684Q656 684 658 684T661 683H855Q879 683 879 666Q879 659 875 646T864 628Q859 625 837 625H781L639 59H695Q705 59 709 58T718 53T722 40Q722 11 708 3Q703 0 691 0H492Q468 0 468 17Q468
26 471 35Q476 59 499 59H566L632 326H318L251 59H307Q317 59 321 58T330 53T334 40Q334 11 320 3Q315 0 303 0H104Q79 0 79 18Z" />
<glyph unicode="I" glyph-name="I" horiz-adv-x="400" d="M74 18Q74 45 89 55Q94 59 103 59H177L318 625H252Q231 625 231 643Q231 677 249 682Q253 683 261 683H474Q494 681 494 666Q494 637 480 628Q476 625 466 625H392L250 59H317Q338 59 338 41Q338 7 319
1Q315 0 307 0H101Q74 0 74 18Z" />
<glyph unicode="J" glyph-name="J" horiz-adv-x="558" d="M119 92Q119 124 135 139T170 155Q185 155 195 146T206 121Q206 97 183 80Q208 48 257 48Q277 48 294 53T324 67T346 87T363 110T375 134T382 156T387 174L389 184L499 625H412Q389 625 389 643Q389 651
393 664T405 681Q410 683 421 683H614Q616 683 618 683T622 684Q646 684 646 666Q646 625 613 625H570Q568 616 564 599T557 573L455 164Q436 82 389 40Q332 -11 252 -11Q194 -11 157 17T119 92Z" />
<glyph unicode="K" glyph-name="K" horiz-adv-x="817" d="M81 18Q81 24 85 37T96 55Q104 59 110 59H180L321 625H268Q257 625 252 625T243 630T238 644Q238 672 252 680Q259 684 269 684Q270 684 272 684T275 683H465Q489 683 489 666Q489 658 486 649Q481 625
458 625H391L310 302L721 624V625H696Q670 625 670 643Q670 649 674 662T683 679T703 683H874L875 684Q876 684 877 684Q901 684 901 666Q901 647 893 634Q887 625 869 625H823Q815 625 811 625T804 624T796 621T789 616T778 607T763 595L524 407L683 59H733Q759
59 759 41Q759 33 755 19T742 2Q737 0 727 0H569Q545 0 545 17Q545 26 548 35Q552 51 558 55T578 59H609L470 363L312 240Q296 227 293 222Q288 212 251 63Q251 61 250 59H305Q315 59 320 58T329 53T333 40Q333 30 328 18T318 3T302 0H106Q81 0 81 18Z" />
<glyph unicode="L" glyph-name="L" horiz-adv-x="669" d="M79 18Q79 25 83 38T94 56Q100 59 108 59H178L319 625H260Q236 625 236 643Q236 677 254 682Q258 683 267 683H475Q477 683 480 683T486 684Q513 684 513 666Q513 658 509 645T497 628Q490 625 482 625H392L251
59H380Q507 59 527 75Q545 90 607 263Q613 279 619 282T643 286Q668 286 668 269Q668 263 594 58Q576 10 572 5Q566 0 551 0H101Q79 0 79 18Z" />
<glyph unicode="M" glyph-name="M" horiz-adv-x="956" d="M84 18Q84 46 98 55Q104 59 126 59H183L324 625H267Q241 625 241 642Q241 650 244 660Q246 668 248 672T255 679T271 683H390Q392 683 395 683T400 684Q413 684 419 679T427 668T430 649L490 133Q496 82
496 80L841 640Q860 670 867 677T895 684Q897 684 901 684T907 683H1018Q1040 683 1040 666Q1040 659 1036 646T1024 628Q1018 625 1010 625H941L800 59H859Q883 59 883 41Q883 8 865 2Q857 0 851 0H668Q640 0 640 19Q640 59 674 59H738L875 608Q870 600 837 546L518
28Q507 11 499 6T473 0H472Q456 0 451 6T444 30L385 538Q384 548 382 570T378 602H377L242 59H300Q325 59 325 41Q325 8 307 2Q299 0 293 0H117Q84 0 84 18Z" />
<glyph unicode="N" glyph-name="N" horiz-adv-x="789" d="M81 18Q81 46 95 55Q101 59 123 59H180L321 625H264Q238 625 238 642Q238 650 241 660Q243 668 244 671T251 679T267 683H367Q368 683 372 683T377 684Q382 684 386 684T393 681T397 678T401 673T403 668T406
660T409 652L579 182L597 133L720 625H661Q637 625 637 643Q637 676 655 682Q663 684 669 684Q670 684 674 684T679 683H857Q877 683 877 666Q877 637 863 628Q859 625 836 625H779L764 563L629 23Q625 9 620 5T599 0H596Q583 0 577 3T566 20L387 513Q373 551 367
570L239 59H297Q322 59 322 41Q322 32 318 19T304 2Q296 0 290 0H114Q81 0 81 18Z" />
<glyph unicode="O" glyph-name="O" horiz-adv-x="828" d="M150 231Q150 290 167 353T220 477T307 586T430 665T587 695Q632 695 674 684T756 647T820 571T845 450Q845 369 811 278T712 118Q589 -11 409 -11Q363 -11 321 0T239 36T175 112T150 231ZM229 247Q229
191 247 151T295 91T358 61T426 52Q495 52 554 79T652 149T719 245T759 350T772 448Q772 501 754 539T704 596T641 624T571 633Q499 633 439 607T341 539T277 446T240 343T229 247Z" />
<glyph unicode="P" glyph-name="P" horiz-adv-x="725" d="M80 18Q80 24 84 37T95 55T122 59H179L320 625H258Q237 625 237 643Q237 672 250 680Q255 683 266 683H544Q548 683 556 683T568 684H579Q613 684 644 677T704 654T752 607T770 533Q770 506 763 477T734
412T679 348T590 302T463 283H308L252 59H308Q318 59 322 58T331 53T335 40Q335 11 321 3Q316 0 304 0H104Q80 0 80 18ZM320 342H465Q585 342 640 396Q694 449 694 524Q694 557 680 578T640 609T590 622T531 625H391L320 342Z" />
<glyph unicode="Q" glyph-name="Q" horiz-adv-x="828" d="M150 231Q150 310 180 391T263 540T402 651T587 695Q623 695 656 689T725 665T786 622T828 551T845 450Q845 307 761 179T540 10V-4Q540 -31 541 -46T548 -81T565 -110T598 -119Q633 -119 666 -90T716
-13Q723 10 732 13Q738 15 744 11T750 -1Q750 -12 740 -40T711 -105T658 -167T583 -194Q559 -194 542 -185T516 -163T503 -131T498 -100T497 -72Q497 -36 500 -2Q451 -11 410 -11Q290 -11 220 52T150 231ZM224 241Q224 112 331 66Q337 113 374 139T451 166Q528
166 538 70Q606 95 656 146T729 255T762 359T772 441Q772 485 760 519T728 575T681 609T628 628T574 633H573Q502 633 442 607T343 538T276 443T236 339T224 241ZM392 70Q392 50 425 50H426Q451 50 497 58Q488 107 445 107Q422 107 407 95T392 70Z" />
<glyph unicode="R" glyph-name="R" horiz-adv-x="781" d="M80 18Q80 24 84 37T95 55T122 59H179L320 625H264Q237 625 237 643Q238 675 253 681Q258 683 268 683H502Q506 683 512 683T522 684Q591 684 635 673Q676 662 704 643T742 601T756 564T759 536Q759 479
717 425T590 336Q645 299 645 237Q645 218 633 164T620 94Q620 69 633 59T662 48Q681 48 693 61T714 90T725 108Q732 113 748 113Q775 113 775 95Q775 70 741 30T655 -11Q630 -11 607 -4T564 28T544 89Q544 111 558 166T573 235Q573 265 542 289T437 313H313L249
59H305Q315 59 319 58T328 53T332 40Q332 0 300 0H106Q80 0 80 18ZM328 371H459Q520 371 566 386T636 426T671 476T682 527Q682 603 584 620Q553 625 510 625H391L328 371Z" />
<glyph unicode="S" glyph-name="S" horiz-adv-x="606" d="M81 1Q81 4 132 208Q135 221 140 224T156 227H159Q161 227 164 227T170 228Q192 228 192 215Q192 213 190 198T187 168Q187 103 232 76T336 48Q417 48 462 101T507 211Q507 268 459 295Q447 301 376 320T291
344Q258 357 231 389T203 474Q203 509 219 547T264 618T341 673T446 695Q548 695 593 621H594Q639 689 644 692Q651 696 658 694T666 682Q666 680 615 477Q611 463 607 460T589 456H574Q554 456 554 470Q554 473 555 486T557 511Q557 570 527 604T436 639Q361 639
317 592T273 494Q273 466 285 447T320 418T367 401T425 386T482 370Q524 354 550 318T576 230Q576 194 561 154T517 76T438 14T326 -11Q206 -11 153 62H152Q120 11 111 0T94 -11Q81 -11 81 1Z" />
<glyph unicode="T" glyph-name="T" horiz-adv-x="772" d="M171 442Q171 445 241 653Q249 678 270 678H833Q855 678 855 659Q855 658 822 453Q819 433 813 429T787 425Q762 425 762 444Q762 449 771 511T783 612Q753 619 687 619H577L437 59H533Q557 59 557 41Q557
33 552 19T539 2Q535 0 526 0H255Q228 0 228 18Q228 25 232 38T245 56Q252 59 260 59H363L503 619H421Q332 618 313 614T284 590Q270 557 259 527T244 482T235 453T227 435T218 428T202 425H197Q171 425 171 442Z" />
<glyph unicode="U" glyph-name="U" horiz-adv-x="789" d="M211 160Q211 196 226 256L318 625H265Q254 625 249 625T240 630T235 644Q235 671 250 680Q257 684 266 684Q267 684 269 684T272 683H466Q490 683 490 666Q490 658 487 649Q482 625 459 625H392L303 267Q283
187 283 159Q283 98 318 73T406 47Q468 47 525 82T613 201Q620 219 627 250L721 625H662Q637 625 637 643Q637 651 641 665T656 682Q664 684 669 684Q670 684 674 684T679 683H810Q815 683 824 683T839 684H843Q861 684 869 681T878 666Q878 637 864 628Q860 625
837 625H780L686 249Q671 194 667 183Q635 99 565 44T398 -11Q314 -11 263 33T211 160Z" />
<glyph unicode="V" glyph-name="V" horiz-adv-x="789" d="M206 642Q206 649 210 662T221 680Q226 683 238 683H412L413 684Q414 684 415 684Q439 684 439 666Q439 663 438 658T436 650Q432 633 426 629T407 625H358L422 92H423L754 625H714Q705 625 701 625T692
630T688 644Q688 655 692 666T703 681Q708 683 719 683H882Q908 683 908 666Q908 644 898 632Q892 625 874 625H834Q821 625 817 622T801 600L440 19Q429 2 421 -3T394 -8H387Q370 -8 365 -2T357 21L291 563Q285 607 283 625H231Q206 625 206 642Z" />
<glyph unicode="W" glyph-name="W" horiz-adv-x="1067" d="M204 643Q204 649 208 662T219 680Q224 683 235 683H402L403 684H404Q428 684 428 666Q428 663 427 658T425 650Q421 634 415 630T397 625H343L361 298L371 100Q375 109 442 231L645 598Q656 617 658
625H616Q605 625 601 625T592 630T588 644Q588 671 603 680Q608 683 619 683H785Q786 683 788 684Q811 684 811 666Q811 658 808 649Q804 633 799 629T780 625H727L750 190L754 100H755L1044 625H990Q965 625 965 642Q965 649 969 662T980 680Q985 683 997 683H1162Q1187
683 1187 666Q1187 648 1180 638T1167 627T1150 625H1102L766 20Q759 8 756 4T745 -4T725 -8H720Q715 -8 711 -8T704 -6T699 -4T696 -1T694 3T693 9T692 14T691 21T691 28L662 543Q636 482 577 374L430 106Q377 11 371 3Q362 -8 341 -8H336Q317 -8 313 -2T307 24L277
563L274 624V625H229Q204 625 204 643Z" />
<glyph unicode="X" glyph-name="X" horiz-adv-x="789" d="M56 18Q56 41 68 53Q74 59 95 59H139Q155 59 161 61T180 79L437 357L316 625H249Q227 625 227 643Q227 674 244 681Q249 683 259 683H438Q462 683 462 666Q462 657 459 648Q456 637 451 632T442 626T428
625H398L492 418L684 625H655Q631 625 631 642Q631 650 634 660Q637 673 642 678T662 683H829Q830 683 831 683T833 684Q859 684 859 666Q859 641 849 631Q843 625 821 625H773Q759 625 754 622T731 599L529 380Q519 369 519 363Q519 358 526 344L640 93Q642 87
647 76T655 59H723Q744 59 744 41Q742 9 727 2Q722 0 712 0H533Q509 0 509 17Q509 26 512 35Q516 51 523 55T543 59H573L461 306L232 59H259Q285 59 285 42Q285 38 283 26Q278 9 273 5T252 0H80Q56 0 56 18Z" />
<glyph unicode="Y" glyph-name="Y" horiz-adv-x="789" d="M201 643Q203 675 218 681Q222 683 232 683H414Q438 683 438 666Q438 657 435 648Q432 637 428 632T419 626T406 625H371L484 338L741 625H715Q689 625 689 641Q689 649 692 658Q696 674 701 678T721 683H890L891
684Q913 684 913 666Q913 642 902 631Q897 625 878 625H828Q816 625 811 622T789 600L511 289Q501 278 496 267T488 242T473 175T443 59H500Q510 59 514 58T523 53T527 40Q527 29 523 18T512 3Q507 0 496 0H299Q275 0 275 17Q275 26 278 35Q283 59 306 59H373Q379
84 392 136T415 227T425 271Q425 278 421 290L288 625H228Q201 625 201 643Z" />
<glyph unicode="Z" glyph-name="Z" horiz-adv-x="661" d="M84 15Q84 27 89 39T100 56L106 62L638 625H501Q411 625 375 620T328 605T304 564Q291 532 282 504T270 464T263 443T252 432T232 430Q206 430 206 446Q206 447 221 502T255 616T279 679Q286 683 295 683H728Q745
683 745 669Q745 645 717 617L193 61H337Q421 61 460 65T510 74T529 95Q541 119 554 154T579 229T594 276Q600 295 622 295Q653 295 653 278Q653 272 647 254Q629 196 605 116Q579 31 572 16T551 0H105Q84 0 84 15Z" />
<glyph unicode="[" glyph-name="bracketleft" horiz-adv-x="328" d="M73 -232Q73 -227 84 -186L312 727Q315 739 320 744T338 750H442Q462 750 462 732Q462 703 448 695Q441 691 433 691H368L148 -191H202Q227 -191 227 -209Q227 -237 214 -246Q207 -250 198 -250H98Q73
-250 73 -232Z" />
<glyph unicode="\" glyph-name="backslash" horiz-adv-x="550" d="M261 718Q261 735 270 742T289 749Q295 749 300 747T308 742T313 735T317 726T318 718T320 711V707L412 -206Q412 -208 412 -212T413 -218Q413 -233 404 -241T384 -249Q358 -249 353 -207L262
705Q262 707 262 711T261 718Z" />
<glyph unicode="]" glyph-name="bracketright" horiz-adv-x="328" d="M-10 -232Q-10 -226 -6 -213T5 -195Q10 -191 19 -191H85L305 691H250Q226 691 226 709Q226 736 239 746Q246 750 254 750H353Q379 750 379 732Q379 728 377 720L149 -193Q138 -240 132 -245Q126
-250 115 -250H11Q-10 -250 -10 -232Z" />
<glyph unicode="^" glyph-name="asciicircum" horiz-adv-x="661" d="M254 505Q254 518 283 532Q476 634 484 634T572 577Q612 548 639 529Q657 516 657 506Q657 497 645 483T623 469T549 515T476 563L475 564Q465 564 376 516T277 468Q266 468 260 482T254 505Z" />
<glyph unicode="_" glyph-name="underscore" horiz-adv-x="828" d="M48 -263T48 -243T79 -223H627Q656 -223 656 -243T628 -263H77Q48 -263 48 -243Z" />
<glyph unicode="`" glyph-name="grave" horiz-adv-x="550" d="M290 644Q290 658 301 670T327 682Q330 682 333 682T340 679T347 674T357 666T368 655T383 641T401 623T424 601T451 574Q463 562 463 555Q463 546 449 533T427 519Q420 519 408 529T308 614Q290 632
290 644Z" />
<glyph unicode="a" glyph-name="a" horiz-adv-x="550" d="M116 144Q116 212 143 284T229 410T359 464Q417 464 456 419Q468 448 494 448Q506 448 514 441T522 421Q522 412 515 384L450 127Q445 110 445 94Q445 74 455 64T477 54Q494 54 506 76T525 125T534 155Q538
161 560 161Q578 161 583 159T589 149Q589 146 586 132T573 94T550 48T515 11T466 -5Q403 -5 381 55Q317 -5 246 -5Q195 -5 156 29T116 144ZM187 140Q187 91 208 72T257 53Q297 53 335 87T393 172Q424 275 424 308Q424 347 406 376T349 405Q313 405 283 381T236
324T207 251T191 184T187 140Z" />
<glyph unicode="b" glyph-name="b" horiz-adv-x="494" d="M119 142Q119 184 136 250L201 509Q201 509 228 620Q196 622 181 622H177Q151 622 151 640Q151 642 152 647T154 655Q158 669 162 674T179 681Q194 683 222 686T269 691T291 694Q309 694 309 677Q309 672
247 422Q302 464 361 464Q412 464 451 429T490 315Q490 246 463 174T377 48T247 -6Q196 -6 158 29T119 142ZM185 142Q185 92 206 73T257 53Q300 53 333 85T384 164T411 251T420 319Q420 368 399 386T349 405Q322 405 289 385T226 313Q210 285 198 228T185 142Z"
/>
<glyph unicode="c" glyph-name="c" horiz-adv-x="494" d="M118 152Q118 225 150 296T245 415T387 464Q438 464 471 440T504 377Q504 348 489 333T455 318Q440 318 432 327T423 349Q423 367 439 384V385Q416 405 377 405Q325 405 286 375T227 300T199 217T190 152Q190
53 288 53Q340 53 380 71T441 107T465 125Q474 125 485 112T497 94Q497 81 470 58T389 15T278 -6Q201 -6 160 37T118 152Z" />
<glyph unicode="d" glyph-name="d" horiz-adv-x="550" d="M116 144Q116 214 144 286T230 411T359 464Q419 464 455 419H456L506 620Q493 621 478 621T456 622T441 623T432 628T429 640Q429 666 440 675Q444 679 476 683T538 691L568 694Q586 694 586 676Q586 665
584 659L450 126Q445 108 445 94Q445 73 455 64T477 54Q494 54 506 76T525 125T534 155Q539 161 554 161H568Q589 161 589 149Q589 144 583 122T563 70T524 18T466 -5Q403 -5 381 55Q317 -5 246 -5Q195 -5 156 29T116 144ZM187 140Q187 91 208 72T257 53Q297 53
335 87T393 171Q424 276 424 309Q424 348 406 376T349 405Q313 405 283 381T236 324T207 251T191 184T187 140Z" />
<glyph unicode="e" glyph-name="e" horiz-adv-x="494" d="M123 164Q123 288 196 376T386 464Q438 464 471 438T505 368Q505 354 501 339T484 303T440 263T362 236Q309 226 202 226Q194 182 194 160Q194 109 218 81T289 53Q329 53 364 64T417 89T449 113T467 125Q474
125 485 112T497 92Q497 86 488 75T458 50T413 24T352 3T278 -6Q250 -6 225 2T175 27T137 80T123 164ZM217 285H250Q443 285 443 359Q443 376 427 390T376 405Q261 405 217 285Z" />
<glyph unicode="f" glyph-name="f" horiz-adv-x="328" d="M-27 -139Q-27 -118 -13 -103T21 -87Q35 -87 44 -96T53 -118Q53 -128 48 -140Q58 -141 70 -141Q91 -141 104 -123T133 -44T174 149Q190 235 201 293T215 371T221 400H146Q123 400 123 417Q123 426 127
439T139 456Q143 458 153 458H232Q245 527 250 550T262 597T277 637Q292 662 318 681T380 700Q414 700 444 686T475 638Q475 619 461 604T427 588Q413 588 404 596T395 618Q395 628 400 640Q391 641 374 641Q344 640 336 624T312 522Q305 483 300 458H393Q414 458
414 441Q414 408 398 402Q393 400 382 400H289L288 399Q230 68 203 -33Q157 -200 64 -200Q32 -200 3 -186T-27 -139Z" />
<glyph unicode="g" glyph-name="g" horiz-adv-x="494" d="M60 -148Q60 -127 75 -112T108 -97Q140 -97 140 -130Q140 -132 140 -135T139 -139Q162 -141 198 -141Q292 -141 326 -84Q332 -73 361 42Q304 0 248 0Q197 0 157 34T117 147Q117 220 146 292T233 414T359
464Q417 464 456 419Q468 448 494 448Q506 448 514 441T522 421Q522 415 520 405L409 -38Q409 -40 407 -49T403 -63T398 -78T390 -96T379 -114T363 -133T343 -151Q279 -200 188 -200H178Q155 -200 140 -199T104 -194T72 -178T60 -148ZM188 145Q188 97 209 78T259
59Q293 59 324 82T378 143Q397 175 410 233T424 307Q424 361 401 383T349 405Q306 405 272 373T222 294T197 208T188 145Z" />
<glyph unicode="h" glyph-name="h" horiz-adv-x="550" d="M81 24Q81 27 81 29T83 35T84 41L213 558L228 620Q215 621 200 621T178 622T163 623T154 628T151 639Q151 644 154 655Q158 669 162 674T179 681Q194 683 222 686T269 691T291 694Q309 694 309 676Q309
671 240 396Q306 464 388 464Q443 464 472 437T502 360Q502 311 465 203T428 85Q428 73 434 64T454 54Q464 54 475 59T502 86T530 146Q532 153 535 156T542 160T554 161H570Q590 161 590 149Q590 135 575 101T523 31T442 -5Q405 -5 383 18T360 77Q360 98 397 201T434
348Q434 405 376 405Q327 405 288 371T225 283T186 177T160 77T145 19Q135 -5 110 -5Q98 -5 90 3T81 24Z" />
<glyph unicode="i" glyph-name="i" horiz-adv-x="328" d="M73 309Q73 318 83 342T110 394T158 443T222 464Q259 464 281 441T304 381Q304 354 255 229T206 85Q206 54 232 54Q242 54 253 59T280 85T307 143Q311 154 315 157T331 161H348Q368 161 368 149Q368 120
326 58T220 -5Q185 -5 162 17T138 77Q138 104 186 229T235 375Q235 388 228 396T209 405Q199 405 188 400T161 374T134 316Q130 304 125 301T107 297H93Q73 297 73 309ZM264 648Q264 665 278 679T311 693Q325 693 334 685T343 662Q343 645 329 631T296 616Q282
616 273 625T264 648Z" />
<glyph unicode="j" glyph-name="j" horiz-adv-x="328" d="M-38 -146Q-38 -125 -23 -111T10 -97Q42 -97 42 -128Q42 -131 40 -141H55Q85 -141 108 -130T144 -103T165 -71T175 -44L177 -33L269 335Q274 350 274 363Q274 382 264 393T238 405Q209 405 182 380T137
317Q133 308 131 305T122 299T105 297Q74 297 74 308Q74 322 94 357T158 428T249 464Q290 464 316 438T342 371Q342 354 333 318L244 -37Q230 -101 194 -138Q177 -154 156 -168Q106 -200 50 -200Q10 -200 -14 -185T-38 -146ZM303 648Q303 665 317 679T349 693Q363
693 372 685T382 662Q382 645 368 631T335 616Q321 616 312 625T303 648Z" />
<glyph unicode="k" glyph-name="k" horiz-adv-x="494" d="M81 23Q81 29 83 39L214 563Q224 601 228 620Q202 622 190 622Q190 622 178 622Q151 622 151 640Q151 666 164 676Q168 680 200 684T262 692L291 694Q309 694 309 677Q309 671 307 661L215 293Q250 307
295 351T383 430T470 464Q501 464 517 443T533 388Q533 347 518 331T482 314Q468 314 459 322T450 344Q450 368 474 385Q471 405 455 405T423 399T386 377T352 350T312 312T272 273Q319 261 352 233T385 157Q385 145 382 126T378 99Q378 79 388 67T413 54Q433 54
447 74T470 124L478 153Q483 161 502 161Q522 161 528 159T534 149Q534 143 526 121T504 69T462 17T401 -5Q359 -5 335 23T310 95Q310 109 313 126T317 149Q317 181 284 201T197 225Q197 224 185 175T161 75T146 20Q135 -5 110 -5Q98 -5 90 3T81 23Z" />
<glyph unicode="l" glyph-name="l" horiz-adv-x="272" d="M99 87Q99 99 114 163L228 620Q215 621 200 621T178 621T164 622T154 628T151 640Q151 666 163 676Q168 680 200 684T262 692L291 694Q309 694 309 676Q309 669 306 660L172 121L170 111Q167 101 167 95Q167
74 178 64T200 54Q205 54 210 56T219 62T226 71T232 83T238 95T242 110T246 123T250 136T253 147Q257 161 273 161H285Q312 161 312 149Q312 147 309 133T296 95T273 49T238 11T189 -5Q151 -5 125 21T99 87Z" />
<glyph unicode="m" glyph-name="m" horiz-adv-x="883" d="M73 309Q73 311 76 325T89 364T112 410T147 448T196 464Q205 464 216 462T242 452T269 427T285 384Q357 464 444 464Q544 464 557 376H558Q624 464 722 464Q770 464 803 441T836 360Q836 310 799 203T762
85Q762 54 788 54Q834 54 863 143Q866 154 871 157T892 161Q911 161 917 159T923 149Q923 134 908 100T856 30T775 -5Q739 -5 716 18T693 77Q693 98 730 202T767 348Q767 405 709 405Q681 405 656 393T612 362T576 314T548 258T525 196T508 137T494 81T484 38Q473
-5 443 -5Q432 -5 423 2T414 21Q414 35 451 177T489 348Q489 405 432 405Q382 405 343 370T280 280T242 174T216 74T200 17Q188 -5 165 -5Q139 -5 137 20Q136 26 141 47L213 335Q218 360 218 364Q218 384 207 394T185 404Q168 404 156 382T137 333T128 303Q123
297 110 297H93Q73 297 73 309Z" />
<glyph unicode="n" glyph-name="n" horiz-adv-x="606" d="M73 309Q73 311 76 325T89 364T112 410T147 448T196 464Q205 464 216 462T242 452T269 427T285 384Q358 464 444 464Q492 464 525 441T558 360Q558 310 521 203T484 85Q484 54 510 54Q520 54 531 59T558
87T586 146Q590 157 595 159T621 161Q646 161 646 149Q646 135 631 101T578 31T497 -5Q460 -5 438 18T416 77Q416 98 452 201T489 348Q489 405 432 405Q383 405 344 370T281 281T242 175T216 76T200 18Q188 -5 165 -5Q139 -5 137 20Q136 27 141 46L213 334Q218
359 218 365Q218 384 207 394T185 404Q168 404 156 382T137 333T128 303Q123 297 110 297H93Q73 297 73 309Z" />
<glyph unicode="o" glyph-name="o" horiz-adv-x="550" d="M118 152Q118 225 149 295T244 415T387 464Q458 464 501 423T544 306Q544 254 526 200T474 99T389 24T275 -6Q204 -6 161 35T118 152ZM190 152Q190 98 218 76T285 53Q337 53 377 83T436 158T464 241T473
306Q473 360 445 382T377 405Q328 405 290 378T232 309T201 227T190 152Z" />
<glyph unicode="p" glyph-name="p" horiz-adv-x="550" d="M23 -177Q23 -170 27 -157T38 -139Q42 -136 59 -136H95Q97 -127 101 -110T108 -84L214 341Q217 353 217 365Q217 385 206 394T185 404Q168 404 156 382T137 333T128 303Q124 297 102 297Q84 297 79 299T73
309Q73 311 76 326T89 364T112 410T147 448T196 464Q221 464 245 450T281 403Q344 464 416 464Q466 464 506 429T546 316Q546 248 519 176T434 49T303 -6Q242 -6 207 39L163 -136H213Q241 -136 241 -154Q241 -185 224 -192Q219 -194 209 -194H47Q23 -194 23 -177ZM239
146Q239 104 259 79T313 53Q356 53 389 85T440 164T466 251T475 319Q475 368 454 386T405 405Q336 405 286 320Q267 287 253 228T239 146Z" />
<glyph unicode="q" glyph-name="q" horiz-adv-x="494" d="M116 144Q116 210 143 282T228 409T359 464Q422 464 458 415H459Q471 433 488 447T515 462Q529 462 529 446Q529 441 522 413L399 -79Q396 -88 392 -107T385 -136H435Q444 -136 449 -137T458 -142T462
-155Q462 -183 448 -191Q443 -194 431 -194H248Q225 -194 225 -177Q225 -166 227 -160Q230 -144 236 -140T256 -136H317L360 37Q305 -5 246 -5Q195 -5 156 30T116 144ZM187 140Q187 91 208 72T257 53Q297 53 335 87T393 171Q424 276 424 309Q424 348 406 376T349
405Q313 405 283 381T236 324T207 251T191 184T187 140Z" />
<glyph unicode="r" glyph-name="r" horiz-adv-x="453" d="M73 310Q73 313 76 327T90 365T113 411T148 448T196 464Q223 464 248 449T283 398Q301 417 315 428T356 452T415 464Q459 464 486 440T514 375Q514 344 499 329T465 314Q451 314 442 322T433 344Q433 363
451 381Q432 405 405 405Q375 405 348 384T302 328T271 264T249 204Q239 170 230 132T217 72T205 31T189 3T164 -5Q137 -5 137 22Q137 34 143 54L213 336Q218 358 218 364Q218 384 208 394T186 404Q169 404 157 382T138 333T128 303Q123 297 110 297H94Q73 297
73 310Z" />
<glyph unicode="s" glyph-name="s" horiz-adv-x="439" d="M78 93Q78 124 93 138T127 153Q141 153 150 144T160 122Q160 105 141 86Q163 53 229 53Q267 53 294 63T333 90T351 120T356 146Q356 174 336 188T275 210T227 222Q200 232 181 255T162 313Q162 333 170
356T195 405T248 447T331 464Q383 464 416 440T449 377Q449 349 435 335T403 321Q390 321 381 329T372 350T386 381V382Q363 405 320 405Q284 405 262 389T234 357T228 329Q228 303 247 292T304 274T359 258Q422 226 422 162Q422 148 418 130T401 87T367 42T308
8T221 -6Q157 -6 118 21T78 93Z" />
<glyph unicode="t" glyph-name="t" horiz-adv-x="356" d="M87 417Q87 424 91 437T102 455Q107 458 118 458H216Q259 632 263 639Q265 643 268 646Q280 660 298 660Q311 660 318 653T326 633Q326 627 315 583T294 498L283 458H372Q397 458 397 441Q397 434 393
421T382 403Q377 400 367 400H269Q264 377 245 303T211 166T195 94Q195 76 205 65T232 54Q261 54 288 79T333 142Q339 155 344 158T369 161Q395 161 395 150Q395 142 382 118T348 66T292 16T219 -6Q178 -6 153 20T127 87Q127 110 138 148L201 400H110Q87 400 87
417Z" />
<glyph unicode="u" glyph-name="u" horiz-adv-x="578" d="M73 309Q73 318 83 342T110 394T157 443T222 464Q258 464 280 441T303 381Q303 360 269 266T234 124Q234 86 253 70T300 53Q341 53 376 93T431 207Q487 429 489 433Q502 458 525 458Q551 458 553 433Q554
426 549 407L480 131Q473 103 473 94Q473 73 484 64T506 54Q523 54 535 76T554 126T563 155Q568 161 592 161Q593 161 597 161T602 161T607 161T611 160T615 158T617 154T618 149Q618 144 612 122T592 70T553 18T495 -5Q432 -5 410 54Q354 -6 287 -6Q237 -6 202
21T166 112Q166 168 200 265T235 374Q235 405 209 405Q189 405 170 384T139 330Q137 325 135 319T132 310T129 304T126 300T120 298T111 297T97 297Q73 297 73 309Z" />
<glyph unicode="v" glyph-name="v" horiz-adv-x="494" d="M74 309Q74 324 89 358T140 428T222 464Q258 464 280 441T303 381Q303 360 269 267T235 129Q235 88 257 71T311 53Q358 53 388 101T444 250Q462 322 462 353Q462 378 455 396T447 422Q447 438 461 451T491
464Q506 464 517 448T529 392Q529 361 516 301T478 170T406 46T299 -6Q245 -6 206 22T167 116Q167 171 201 266T235 373Q235 386 228 395T209 405Q199 405 188 400T161 373T134 315Q130 303 125 300T100 297H92Q74 297 74 309Z" />
<glyph unicode="w" glyph-name="w" horiz-adv-x="717" d="M73 309Q73 339 116 401T221 464Q257 464 280 441T303 381Q303 359 270 268T236 132Q236 89 261 71T319 53Q343 53 363 76T392 118T406 157Q407 159 407 161T408 166T410 176T414 193T421 223T432 266T447
328T468 411Q481 458 512 458Q523 458 531 450T539 430Q539 419 506 291T472 129Q472 87 494 70T546 53Q588 53 613 98T666 247Q685 326 685 353Q685 377 677 397T669 422Q669 437 682 450T713 464Q728 464 739 448T751 392T731 270T689 133Q633 -6 535 -6Q448
-6 416 54H415Q372 -6 307 -6Q249 -6 208 22T167 119Q167 173 201 268T235 374Q235 388 228 396T209 405Q199 405 188 400T161 373T134 315Q131 304 126 301T105 297Q86 297 80 299T73 309Z" />
<glyph unicode="x" glyph-name="x" horiz-adv-x="494" d="M62 83Q62 115 77 130T112 145Q126 145 135 137T144 114Q144 96 125 77Q142 53 168 53Q207 53 231 93Q241 109 268 220T296 351Q296 405 240 405Q206 405 179 381T137 322Q130 305 126 301T112 297H98Q74
297 74 309Q74 344 125 404T250 464Q317 464 347 416Q397 464 450 464Q491 464 518 440T545 376Q545 344 530 329T496 314Q482 314 473 322T464 344Q464 363 482 381Q465 405 440 405Q400 405 376 364Q367 348 339 237T311 107Q311 78 328 66T368 53Q401 53 430
79T475 147Q479 157 483 159T505 161H515Q534 161 534 149Q534 115 483 55T357 -6Q293 -6 261 42Q207 -5 157 -5Q116 -5 89 19T62 83Z" />
<glyph unicode="y" glyph-name="y" horiz-adv-x="522" d="M74 309Q74 319 83 342T110 394T157 443T222 464Q259 464 281 440T304 381Q304 360 269 266T234 124Q234 85 253 69T300 53Q341 53 377 93T431 206Q489 434 490 436Q502 458 525 458Q536 458 544 451T553
431Q553 425 548 405L452 20Q433 -56 399 -101Q374 -133 338 -158Q279 -200 214 -200Q169 -200 140 -177T111 -117Q111 -88 126 -74T160 -59Q174 -59 183 -67T193 -89Q193 -106 177 -124Q198 -141 224 -141Q268 -141 309 -109T371 -25Q375 -15 388 33Q337 -6 287
-6T202 21T166 112Q166 168 200 266T235 374Q235 388 228 396T209 405Q166 405 133 313Q129 302 123 300T97 297Q74 297 74 309Z" />
<glyph unicode="z" glyph-name="z" horiz-adv-x="439" d="M53 4Q53 10 66 30Q101 86 153 140T266 253T364 353Q348 359 317 378T264 397Q225 397 203 362Q201 358 198 353T195 346T190 343T181 341T164 341Q139 341 139 352Q139 381 181 422T276 464Q305 464 341
436T395 408Q408 408 417 422T435 450T460 464H479Q497 464 497 454Q497 445 483 423T454 383L439 365Q399 316 311 231T190 110Q219 108 256 85T315 62Q345 62 374 83T416 139Q417 141 418 144T420 149T422 152T426 155T431 157T439 158T451 159H461Q478 159 478
147Q478 113 426 54T304 -5Q274 -5 238 22T179 50Q161 50 146 40T120 15T107 -1Q102 -6 88 -6H77Q53 -6 53 4Z" />
<glyph unicode="{" glyph-name="braceleft" horiz-adv-x="550" d="M137 233Q137 239 141 255T151 276Q154 278 160 278T179 280T208 285Q249 294 283 317T332 374Q338 386 368 510T406 650Q429 697 484 723T608 750H636Q654 750 654 738Q654 734 650 718T643 697Q639
692 629 692T596 690T550 684Q537 681 526 678T507 670T492 661T481 651T473 642T468 631T464 622T462 613L460 606Q403 377 397 362Q363 285 252 249Q296 235 318 205T340 140Q340 123 319 39Q294 -60 280 -115Q276 -131 276 -139Q276 -188 402 -191Q419 -191
419 -203Q419 -208 413 -230Q410 -243 406 -246T387 -250H370Q281 -250 244 -219T207 -147Q207 -129 239 -5T272 135Q272 174 238 195T163 220Q162 220 156 220T148 221T143 222T138 226T137 233Z" />
<glyph unicode="|" glyph-name="bar" horiz-adv-x="328" d="M87 -228Q87 -228 90 -210L323 720Q330 749 346 749Q353 749 359 743T365 728Q365 723 325 564L130 -218Q121 -249 106 -249Q87 -249 87 -228Z" />
<glyph unicode="}" glyph-name="braceright" horiz-adv-x="550" d="M20 -238Q20 -234 24 -218T31 -197Q35 -192 47 -192T81 -190T124 -185Q137 -182 148 -179T167 -171T182 -162T193 -152T201 -142T206 -131T210 -122T212 -113L214 -106Q272 126 278 139Q312 215
422 251Q385 263 360 290T335 360Q335 372 342 404Q399 630 399 639Q399 666 368 677T299 690T259 694Q255 697 255 703T261 730Q265 744 269 747T287 750H304Q393 750 430 719T467 647Q467 628 435 505T403 365Q403 326 435 305T510 280Q511 280 517 280T525 279T530
278T535 274T536 267Q536 261 532 245T522 224Q519 222 514 222T496 220T467 215Q426 206 392 183T342 127Q334 111 305 -11T268 -150Q245 -197 190 -223T66 -250H39Q20 -250 20 -238Z" />
<glyph unicode="~" glyph-name="asciitilde" horiz-adv-x="661" d="M260 600Q260 609 273 622Q309 658 339 676T405 694Q438 694 494 668T577 641Q602 641 624 654T662 680T684 693Q692 693 704 682T716 662Q716 651 693 631Q628 568 571 568Q535 568 481 594T398
621Q373 621 351 608T313 582T291 569Q283 569 272 580T260 600Z" />
</font>
</defs>
</svg>
