<?xml version="1.0" standalone="no"?> <!DOCTYPE svg PUBLIC "-//W3C//DTD SVG 1.0//EN" "http://www.w3.org/TR/2001/REC-SVG-20010904/DTD/svg10.dtd" > <svg xmlns="http://www.w3.org/2000/svg" width="100%" height="100%">
<defs >
<font id="cmuntx" horiz-adv-x="525" ><font-face
    font-family="CMU Typewriter Text"
    units-per-em="1000"
    panose-1="2 0 8 9 0 0 0 0 0 0"
    ascent="866"
    descent="-230"
    alphabetic="0" />
<missing-glyph d="M10 10V765H515V10H10ZM70 112L232 388L70 663V112ZM105 70H420L262 337L105 70ZM105 705L262 438L420 705H105ZM292 388L455 112V663L292 388Z" />
<glyph unicode=" " glyph-name="space" />
<glyph unicode="!" glyph-name="exclam" d="M205 65Q205 98 231 123T292 149Q319 149 338 131T357 85Q357 53 331 27T270 0Q242 0 224 18T205 65ZM266 252Q266 256 267 263T269 272L321 534Q325 556 330 568Q341 591 363 605T410 619Q437 619 456 602T475 557Q475
542 467 518L389 260Q384 245 382 239T371 228T348 222H303Q266 222 266 252Z" />
<glyph unicode="&quot;" glyph-name="quotedbl" d="M228 367Q228 372 271 559Q281 611 319 611Q335 611 346 600T358 572Q358 566 305 370Q297 337 271 336H263Q249 336 241 342T230 355T228 367ZM404 367Q404 372 447 559L448 562Q449 566 449 568T451 576T455
584T459 592T465 599T473 605T483 609T495 611Q512 611 523 600T534 572Q534 564 481 368Q473 336 447 336H437Q423 336 414 345T404 367Z" />
<glyph unicode="#" glyph-name="numbersign" d="M120 194Q120 225 150 231Q156 232 169 232H204L254 379H222Q175 379 175 417T223 455H280Q325 585 328 591Q338 610 361 610Q378 610 388 599T398 575Q398 568 392 548T375 499T360 455H419Q464 585 467 591Q477
610 500 610Q517 610 527 599T537 575Q537 568 531 548T514 499T499 455H510Q529 455 540 447T554 432T557 417Q557 403 548 393T526 380Q520 379 508 379H472L422 232H456Q501 232 501 194T453 156H396Q396 155 374 90T349 21Q338 0 315 0Q299 0 289 12T278 37Q278
44 316 156H257Q257 155 235 90T210 21Q199 0 176 0Q160 0 150 12T139 37Q139 44 177 156H166Q120 156 120 194ZM284 232H342L393 379H334L284 232Z" />
<glyph unicode="$" glyph-name="dollar" d="M128 127Q128 217 180 217Q197 217 207 206T218 179Q218 175 215 158T212 130Q212 92 243 76L295 286Q244 301 221 337T198 414Q198 480 246 540T376 612L377 613Q388 665 396 679T425 694H429Q448 694 456 685T465
663Q465 658 464 652T459 633T453 610Q495 601 523 570T551 488Q551 455 540 431T500 406Q484 406 473 416T461 444Q461 447 463 461T466 485Q466 520 434 535L388 349Q426 338 454 304T482 214Q482 172 464 129T403 47T300 -2Q286 -64 277 -74Q268 -83 251 -83H248Q227
-83 219 -73T211 -53Q211 -47 223 1Q179 12 154 44T128 127ZM279 425Q279 385 316 369L356 531Q317 516 298 484T279 425ZM321 81Q358 97 380 133T402 205Q402 247 368 266L321 81Z" />
<glyph unicode="%" glyph-name="percent" d="M92 -42Q92 -32 103 -12L502 667Q517 694 542 694Q560 694 571 682T583 652Q583 642 573 624L179 -47Q178 -48 176 -53T172 -60T167 -66T160 -73T153 -78T145 -82T134 -83Q117 -83 105 -71T92 -42ZM202 505Q202 534
212 575T249 655T310 694Q331 694 348 676T366 616Q366 584 355 542T317 464T258 428Q236 428 219 445T202 505ZM272 517Q290 551 297 605Q275 571 272 517ZM310 -7Q310 26 321 68T358 146T417 183Q439 183 456 166T474 106Q474 83 467 52T448 -10T413 -62T366
-83Q345 -83 328 -66T310 -7ZM380 7Q403 48 405 93Q394 77 387 51T380 7Z" />
<glyph unicode="&amp;" glyph-name="ampersand" d="M89 164Q89 209 105 256T138 334T155 368Q155 370 155 374T154 382Q154 430 172 483T230 577T324 619Q362 619 389 598T416 540Q416 512 402 499T369 486Q353 486 342 496T330 524V534Q330 543 320 543Q313 543
305 538T285 523T263 490T245 436Q266 443 283 443Q308 443 321 426T335 383Q335 343 314 305T252 267Q230 267 202 282Q173 212 173 166Q173 115 207 91T291 67Q432 67 472 215Q435 220 409 245T382 310Q382 339 396 362T428 399T469 434T505 476Q521 502 531
539T551 594T586 611Q602 611 613 600T625 572T607 503T563 417V416Q582 385 582 346Q582 314 569 258T545 170Q527 119 497 83T432 27T361 0T288 -8Q198 -8 144 36T89 164ZM466 313Q466 305 474 294L485 296L493 297L497 331L496 353Q495 352 491 349T483 342T475
335T469 325T466 313Z" />
<glyph unicode="&apos;" glyph-name="quotesingle" d="M316 367Q316 373 359 559Q359 559 360 562Q361 566 361 568T363 576T367 584T371 592T377 599T385 605T395 609T407 611Q424 611 435 601T446 572Q446 563 393 368Q385 336 359 336H350Q316 337 316 367Z" />
<glyph unicode="(" glyph-name="parenleft" d="M234 172Q234 256 261 346T351 530T504 684Q520 694 537 694H538Q575 694 575 665Q575 650 552 634Q442 557 380 425T317 162Q317 109 329 68T356 7T383 -29T395 -55Q395 -83 358 -83Q342 -83 331 -76T299 -42Q234
42 234 172Z" />
<glyph unicode=")" glyph-name="parenright" d="M101 -54Q101 -49 102 -45T108 -36T114 -30T121 -25T127 -21Q235 56 297 187T359 446Q359 501 347 543T320 605T293 640T281 665Q281 694 316 694H319Q339 694 355 678Q442 591 442 439Q442 306 373 161T172 -73Q156
-83 141 -83H139Q101 -83 101 -54Z" />
<glyph unicode="*" glyph-name="asterisk" d="M149 208Q149 213 150 217T153 226T158 234T166 241T175 248T187 255T200 262T216 270T234 280L282 305V306Q271 314 259 323T240 336T225 347T213 356T205 362T199 368T196 374T194 379T193 385Q193 401 207 417T242
433Q245 433 247 433T251 431T256 429T262 425T269 419T278 410T289 399T303 385T321 368Q344 490 353 505Q368 527 393 527Q406 527 414 520T423 500Q423 490 386 368Q400 377 415 387T438 402T455 413T468 422T478 427T485 431T491 432T497 433Q509 433 518 425T527
403Q527 383 512 372T435 327Q409 313 394 305Q474 246 479 240Q483 235 483 226Q483 209 468 194T434 178Q430 178 427 178T420 182T413 187T403 196T391 207T375 223T355 243Q352 227 348 202T341 166T334 138T326 114T316 98T301 87T282 84Q270 84 262 91T253
111Q253 118 290 243Q198 182 188 179Q183 178 178 178Q166 178 158 186T149 208Z" />
<glyph unicode="+" glyph-name="plus" d="M149 305Q149 343 196 343H309V344Q310 350 312 359T324 404T344 486Q355 530 385 530Q400 530 411 520T422 493Q422 487 386 343H481Q500 343 511 335T524 320T527 305Q527 297 525 290T511 276T481 268H367Q364 252
329 115Q321 81 291 81Q276 81 265 91T254 118Q254 125 290 268H194Q176 268 165 276T152 291T149 305Z" />
<glyph unicode="," glyph-name="comma" d="M158 -97Q158 -84 167 -76T191 -64T227 -43T268 0Q239 1 222 18T204 63Q204 96 229 122T292 149Q326 149 346 126T367 65Q367 19 329 -42T215 -134Q203 -138 196 -138Q182 -138 170 -124T158 -97Z" />
<glyph unicode="-" glyph-name="hyphen" d="M168 215Q168 222 170 230T182 249T210 260H429Q445 260 454 253T464 240T466 229Q466 222 465 214T453 196T425 185H214Q212 185 209 185T205 184Q184 184 176 194T168 215Z" />
<glyph unicode="." glyph-name="period" d="M204 64Q204 97 230 123T292 149Q319 149 337 131T356 85Q356 52 330 26T269 0Q242 0 223 18T204 64Z" />
<glyph unicode="/" glyph-name="slash" d="M79 -46Q79 -34 91 -15L523 670Q537 694 559 694Q575 694 586 683T597 657Q597 646 586 628L160 -47Q159 -48 155 -55T149 -65T141 -73T130 -80T117 -83Q101 -83 90 -73T79 -46Z" />
<glyph unicode="0" glyph-name="zero" d="M130 167Q130 259 164 361T267 541T417 619Q439 619 459 611T501 585T534 530T547 442Q547 353 506 232T386 44Q325 -8 260 -8Q210 -8 170 32T130 167ZM216 179Q216 67 279 67Q317 67 353 108T412 209T450 330T464 433Q464
489 446 516T398 544Q347 544 304 478T238 328T216 179Z" />
<glyph unicode="1" glyph-name="one" d="M130 31Q130 75 170 75H250L342 442Q304 419 264 419Q230 419 230 451Q230 472 243 485Q250 491 266 494T298 501T340 528T394 592Q409 616 428 616Q429 616 431 616T434 615V616Q462 610 462 585Q462 580 460 570L349
128Q347 119 343 102T336 75H394Q432 75 432 43Q432 0 391 0H168Q130 0 130 31Z" />
<glyph unicode="2" glyph-name="two" d="M79 21Q79 34 89 61T119 123T178 197T266 261Q369 315 398 338Q459 387 459 463Q459 507 436 525T381 544Q338 544 299 516T245 446Q238 426 231 421T204 415H199Q160 415 160 444Q160 494 226 556T385 619Q456 619 499
578T543 465Q543 412 525 369T472 297T408 248T337 207T281 176Q248 155 216 118Q241 114 293 94T368 74Q402 74 425 105T457 166Q461 179 463 183T474 193T500 198Q542 198 542 168Q542 154 531 127T499 69T442 15T365 -8T267 18T191 44Q178 44 172 36T163 18T152
0T126 -8H116Q79 -8 79 21Z" />
<glyph unicode="3" glyph-name="three" d="M111 118Q111 190 160 190Q176 190 187 179T199 151Q199 146 197 137T195 120Q195 98 208 83T253 67T314 78T370 123T396 212Q396 280 332 280H300Q261 280 261 312Q261 320 263 328T274 345T301 355H339Q401 355 433
399T466 488Q466 544 405 544Q372 544 342 528T298 485Q296 481 293 473T288 463T282 456T272 451T254 450H249Q211 450 211 479Q211 522 268 570T409 619Q471 619 511 585T551 490Q551 438 524 388T449 310Q479 268 479 214Q479 108 412 50T246 -8Q181 -8 146
29T111 118Z" />
<glyph unicode="4" glyph-name="four" d="M64 41Q64 52 70 59T86 74T120 101T170 149Q228 212 274 292T341 430T377 539T393 592Q408 619 434 619Q450 619 461 609T473 581Q473 575 466 545T440 460T392 345T316 214T211 85Q252 80 307 57Q311 72 315 92T322 123T329
148T335 169T341 185T348 198T357 206T368 211T382 213Q398 213 409 203T421 176Q421 171 388 38Q399 39 414 44T436 50Q449 50 461 35T473 8Q473 -11 442 -24T380 -37H369Q363 -65 335 -176Q324 -222 288 -222Q271 -222 260 -211T249 -183Q249 -176 255 -151T272
-86T289 -17Q275 -12 256 -5T229 5T206 9T169 11Q134 11 120 6T104 0Q88 0 76 14T64 41Z" />
<glyph unicode="5" glyph-name="five" d="M117 112Q117 150 131 165T165 181Q183 181 194 170T205 142Q205 137 203 129T201 116Q201 98 213 83T255 67Q325 67 367 123T410 246Q410 310 356 310Q300 310 258 268Q256 266 253 263T248 258T243 254T237 250T230
249T219 248Q205 248 199 250Q178 257 178 279Q178 288 180 294L250 572Q250 573 251 577T253 583T254 588T257 593T260 598T263 602T268 606T274 609T281 610T290 611H515Q554 611 554 580Q554 572 552 563T540 545T515 535H326L285 371Q328 386 361 386Q422 386
458 349T494 248Q494 142 424 67T251 -8Q187 -8 152 28T117 112Z" />
<glyph unicode="6" glyph-name="six" d="M131 160Q131 202 145 270T180 391Q222 497 297 558T457 619Q501 619 528 598T555 536Q555 503 540 489T507 475Q491 475 480 485T469 513Q469 517 470 523T471 531Q471 544 450 544Q393 544 339 491T256 360Q314 398 373
398Q443 398 473 355T504 260Q504 216 489 171T446 85T371 18T269 -8Q245 -8 224 -1T180 22T145 74T131 160ZM215 151Q215 67 275 67Q322 67 356 102T405 178T419 253Q419 323 355 323Q334 323 312 314T267 286T230 232T215 151Z" />
<glyph unicode="7" glyph-name="seven" d="M135 444Q135 453 169 521Q190 563 205 594Q212 608 219 613T243 619H251Q280 619 289 599Q336 619 378 619Q401 619 417 611T440 593T456 575T477 566Q519 566 553 603Q569 619 588 619H598Q635 619 635 590Q635 585
633 580T629 571T622 562T617 555Q431 297 363 37L362 34Q361 30 360 28T357 21T353 13T348 5T340 -2T330 -6T317 -8Q298 -8 288 3T277 28Q277 47 296 109T364 280T477 490H470Q443 490 426 502T398 525T373 537Q342 537 297 515T222 443Q211 424 204 420T179 415H171Q152
415 144 424T135 444Z" />
<glyph unicode="8" glyph-name="eight" d="M115 123Q115 144 120 168T138 221T178 277T243 321L264 330Q200 356 200 422Q200 463 223 507T297 585T416 619Q479 619 516 589T553 501Q553 471 544 442T504 381T423 330Q496 301 496 223Q496 188 481 150T438 75T363
16T258 -8Q191 -8 153 27T115 123ZM201 143Q201 108 221 88T278 67Q337 67 374 114T411 216Q411 251 391 271T334 292Q275 292 238 245T201 143ZM284 430Q284 396 305 382T353 368Q404 368 435 403T466 481Q466 515 445 529T397 544Q347 544 316 509T284 430Z"
/>
<glyph unicode="9" glyph-name="nine" d="M121 76Q121 108 136 122T169 136Q185 136 196 126T207 98Q207 96 207 91T206 83Q206 67 234 67Q289 67 341 119T421 252Q364 212 302 212Q233 212 203 255T172 350Q172 377 182 420T210 496Q219 512 232 528T270 568T332
605T411 619Q434 619 455 612T498 589T533 538T546 455Q546 403 532 333T474 174T367 40Q301 -8 230 -8Q182 -8 152 13T121 76ZM257 358Q257 331 271 310T320 288Q372 288 417 331T462 461Q462 544 404 544Q340 544 299 483T257 358Z" />
<glyph unicode=":" glyph-name="colon" d="M278 358Q278 391 304 417T366 444Q393 444 411 426T430 380Q430 345 403 320T343 295Q315 295 297 313T278 358ZM204 64Q204 97 230 123T292 149Q319 149 337 131T356 85Q356 52 330 26T269 0Q242 0 223 18T204 64Z" />
<glyph unicode=";" glyph-name="semicolon" d="M278 358Q278 391 304 417T366 444Q393 444 411 426T430 380Q430 345 403 320T343 295Q315 295 297 313T278 358ZM158 -97Q158 -84 167 -76T191 -64T227 -43T268 0Q239 1 222 18T204 63Q204 96 229 122T292 149Q326
149 346 126T367 65Q367 19 329 -42T215 -134Q203 -138 196 -138Q182 -138 170 -124T158 -97Z" />
<glyph unicode="&lt;" glyph-name="less" d="M165 305Q165 327 194 345L503 555Q518 565 530 565Q545 565 556 555T567 528Q567 521 566 516T559 505T552 498T542 490T533 484L261 299Q286 275 436 120Q456 100 456 82Q456 67 446 57T419 46T380 69L186 269Q165
290 165 305Z" />
<glyph unicode="=" glyph-name="equal" d="M131 227Q131 241 139 251T162 264Q169 265 182 265H464Q484 265 496 255T508 227Q508 220 506 213T492 198T461 190H176Q149 190 140 202T131 227ZM170 383Q170 391 172 398T186 413T217 421H501Q520 421 531 413T544
398T547 383Q547 376 545 369T532 354T503 346H213Q188 346 179 358T170 383Z" />
<glyph unicode="&gt;" glyph-name="greater" d="M109 83Q109 89 111 94T115 103T122 111T129 117T137 122T143 127L366 278Q410 308 415 312L240 492Q220 512 220 528Q220 546 232 555T258 565Q274 565 297 542L490 343Q511 320 511 306Q511 284 483 266L174 56Q158
46 147 46Q131 46 120 57T109 83Z" />
<glyph unicode="?" glyph-name="question" d="M212 483Q212 528 268 573T408 619Q463 619 497 591T532 509Q532 430 462 375Q448 365 348 305L342 293L337 278Q353 284 361 292T370 308T380 320T406 325H411Q450 325 450 295Q450 264 412 232T321 200Q293 200
276 219T258 269Q258 330 300 367Q314 380 357 402T426 449T453 506Q453 544 404 544Q377 544 356 537T323 518T304 496T294 478L291 470Q278 444 250 444Q235 444 224 455T212 483ZM216 53Q216 81 237 100T284 120Q306 120 321 105T337 67Q337 40 317 20T270 0Q247
0 232 15T216 53Z" />
<glyph unicode="@" glyph-name="at" d="M138 194Q138 257 159 329T217 465T314 572T443 615Q485 615 518 586T552 481Q552 393 511 262Q487 190 444 148T352 105Q315 105 286 134T256 229Q256 263 267 308T300 399T357 475T438 506Q459 506 481 495Q474 539 438
539Q372 539 317 481T235 347T207 201Q207 129 238 100T309 71Q333 71 354 81T391 103T410 116Q413 117 427 117H431Q467 117 467 88Q467 64 416 30T304 -4Q275 -4 248 6T195 37T154 99T138 194ZM325 235Q325 181 357 181Q399 181 431 248T464 376Q464 430 432
430Q390 430 358 363T325 235Z" />
<glyph unicode="A" glyph-name="A" d="M73 31Q73 76 112 76Q112 76 117 75H134L345 571Q357 599 368 609T406 619H434Q466 619 466 587Q466 586 466 583T465 579L431 124Q429 90 427 75H429Q471 75 471 45Q471 0 428 0H322Q302 0 294 9T285 31Q285 75 327 75H342L348
150H251L220 75Q258 75 258 45Q258 0 217 0H140Q138 0 131 0T120 -1Q73 -1 73 31ZM282 225H355Q366 398 397 541Q367 436 282 225Z" />
<glyph unicode="B" glyph-name="B" d="M62 31Q62 75 106 75H130L244 535H232Q211 536 204 546T196 566Q196 572 197 580T208 599T235 611H442Q486 611 518 587T550 505Q550 476 542 444T504 375T428 320Q496 301 496 221Q496 191 485 155T452 83T391 24T303 0H100Q85
0 76 6T65 19T62 31ZM215 75H306Q344 75 370 103T404 162T413 220Q413 280 362 280H266L215 75ZM285 355H359Q409 355 436 400T464 487Q464 535 418 535H330L285 355Z" />
<glyph unicode="C" glyph-name="C" d="M134 181Q134 243 153 317T208 459T301 573T426 619Q474 619 516 585Q535 607 543 613T564 619Q581 619 588 610T596 590Q596 584 559 436Q555 422 548 416T536 408T520 407H512Q475 407 475 440Q475 445 476 458T477 479Q477
503 467 523T432 544Q372 544 321 481T245 336T219 188T243 94T299 67Q332 67 361 95T403 159Q404 161 406 167T408 174T411 180T414 186T419 190T426 193T435 195T446 196Q490 196 490 166Q490 120 429 56T283 -8Q258 -8 235 0T187 29T149 88T134 181Z" />
<glyph unicode="D" glyph-name="D" d="M62 30Q62 49 70 60T86 73T101 76L103 75H124L239 535H235Q195 535 195 566Q195 574 197 583T209 601T238 611H418Q454 611 480 596T519 554T539 500T545 440Q545 381 527 309T476 166T387 48T265 0H100Q62 0 62 30ZM210
75H262Q310 75 350 115T412 212T446 324T458 416Q458 535 377 535H325L210 75Z" />
<glyph unicode="E" glyph-name="E" d="M63 31Q63 68 91 74Q96 75 107 75H132L247 535H234Q197 535 197 566Q197 611 234 611H553Q590 611 590 580Q590 572 576 518T560 459Q551 441 523 441Q506 441 502 442Q480 448 480 470Q480 475 495 535H332L287 354H366V355Q374
392 382 401T413 411Q432 411 439 407Q457 397 457 380Q457 375 427 255Q422 233 412 228T385 222H380Q342 222 342 253Q342 259 347 279H268L218 75H398Q401 87 404 102T410 124T414 142T419 156T423 167T427 175T433 180T440 183T448 184T460 185H462Q502 185
502 157Q502 146 475 41Q471 24 468 18T457 6T434 0H100Q63 0 63 31Z" />
<glyph unicode="F" glyph-name="F" d="M64 31Q64 75 107 75H136L250 535H235Q198 535 198 566Q198 611 235 611H560Q598 611 598 580Q598 572 584 518T568 459Q559 441 531 441Q514 441 511 442Q488 449 488 470Q488 475 503 535H336L288 343H372Q373 347 375
357T378 369T381 378T385 387T390 392T397 397T406 399T419 400H425Q462 400 462 369Q462 364 453 325Q431 234 425 225Q417 211 391 211H388Q348 211 348 243L353 268H269L221 75H251Q290 75 290 44Q290 0 250 0H102Q64 0 64 31Z" />
<glyph unicode="G" glyph-name="G" d="M130 174Q130 225 144 293T195 441T285 567Q344 619 407 619Q456 619 488 588H489Q506 607 514 613T535 619Q552 619 559 610T567 590Q567 589 530 439Q525 418 516 413T489 407H484Q446 407 446 438Q446 443 447 457T449
482Q449 543 413 543Q387 543 353 519T285 438Q252 380 233 302T214 177Q214 133 229 100T278 67Q300 67 318 82T350 121T369 160T381 192H358Q321 192 321 225Q321 233 323 241T335 258T362 268H481Q518 268 518 237Q518 192 476 192H468Q466 180 430 37Q425 12
416 6T389 -1H382Q357 -1 346 16Q305 -8 265 -8Q213 -8 172 34T130 174Z" />
<glyph unicode="H" glyph-name="H" d="M63 31Q64 51 72 61T87 73T104 75H127L242 535H235Q197 535 197 569Q197 611 237 611H356Q393 611 393 580Q393 561 385 550T369 537T353 535H328L283 355H419L464 535H457Q419 535 419 569Q419 611 459 611H577Q614 611
614 580Q614 535 572 535H549L435 75H442Q480 75 480 43Q480 0 441 0H322Q284 0 284 31Q285 51 293 61T308 73T325 75H349L400 280H264L213 75H220Q259 75 259 43Q259 35 257 27T245 10T219 0H100Q63 0 63 31Z" />
<glyph unicode="I" glyph-name="I" d="M103 31Q103 75 144 75H237L352 535H274Q253 535 245 545T236 567Q237 586 245 596T260 609T277 611H535Q573 611 573 580Q573 535 532 535H438L323 75H402Q439 75 439 44Q438 25 430 15T415 2T398 0H140Q103 0 103 31Z" />
<glyph unicode="J" glyph-name="J" d="M116 86Q116 116 130 129T163 143Q180 143 191 132T202 105Q202 102 202 98T201 91Q201 67 247 67Q261 67 273 70T294 79T310 93T322 108T330 125T335 139T338 152L340 158L434 535H379Q340 535 340 568Q340 611 383 611H549Q589
611 589 580Q589 535 546 535H519Q514 508 509 492L418 129Q401 59 352 26T243 -8Q187 -8 152 18T116 86Z" />
<glyph unicode="K" glyph-name="K" d="M62 31Q62 75 104 75H124L239 535Q196 535 196 567Q196 611 236 611H335Q371 611 371 579Q371 535 330 535H309L256 321L448 537Q427 548 427 566Q427 611 468 611H557Q594 611 594 580Q594 535 550 535H528L369 357L427
75Q468 75 468 46Q468 41 466 29Q460 0 429 0H351Q313 0 313 31Q313 39 315 47T327 65T353 75L309 289L236 209L225 194Q222 186 194 75Q237 75 237 44Q237 0 199 0H98Q62 0 62 31Z" />
<glyph unicode="L" glyph-name="L" d="M65 31Q65 58 78 67T106 76L110 75H140L255 535H238Q200 535 200 566Q200 611 240 611H393Q432 611 432 579Q432 535 385 535H340L226 75H387Q409 162 413 171Q421 185 448 185Q465 186 473 183Q491 176 491 155Q491 148
464 41Q458 17 452 9T424 0H102Q65 0 65 31Z" />
<glyph unicode="M" glyph-name="M" d="M59 31Q59 75 101 75H114L229 535H228Q193 535 193 568Q193 576 195 584T207 601T234 611H315Q350 611 350 576V526Q349 456 347 409T342 347T336 308T331 277Q348 344 452 558Q453 560 457 567T462 577T467 585T473 594T480
600T489 606T500 609T514 611H579Q617 611 617 580Q614 535 575 535H562L447 75Q483 75 483 43Q483 0 442 0H361Q323 0 323 33Q323 75 364 75H377L487 516Q467 447 373 258Q373 257 369 249T364 239T358 229T350 219T340 212T328 206T313 204Q279 204 279 241Q279
327 282 396T290 491L294 517L184 75Q219 75 219 43Q219 0 179 0H98Q75 0 67 10T59 31Z" />
<glyph unicode="N" glyph-name="N" d="M63 31Q63 75 105 75H127L242 535Q219 535 208 541T196 569Q196 576 198 584T211 602T237 611H325Q355 611 361 590T368 467Q369 374 371 307V282L372 265V201L371 187V171Q371 148 367 83L480 535H473Q434 535 434 569Q434
577 436 585T449 602T475 611H577Q614 611 614 580Q614 535 572 535H549Q546 519 538 489L425 38Q420 16 412 8T383 0H349Q326 1 320 11T312 39Q310 113 309 178T307 278T306 323V385Q306 413 310 529L197 75H205Q243 75 243 42Q243 33 241 25T228 8T200 0H100Q63
0 63 31Z" />
<glyph unicode="O" glyph-name="O" d="M120 66Q120 128 155 269T212 475Q233 537 252 565T307 606T408 619H429Q497 619 526 605T556 544Q556 483 521 339T464 133Q434 46 400 20T282 -8H259Q232 -8 223 -8T190 -5T153 4T131 23Q120 38 120 66ZM211 114Q211 67
281 67Q308 67 326 73T356 94T369 112T377 131Q398 183 432 320T467 498Q467 521 452 532T399 544Q366 544 345 535T316 516T302 489Q279 437 245 295T211 114Z" />
<glyph unicode="P" glyph-name="P" d="M63 31Q63 75 106 75H132L247 535H233Q197 535 197 566Q197 611 237 611H437Q504 611 531 575T559 487Q559 450 547 409T510 326T440 257T335 230H256L218 75H231Q268 75 268 44Q268 0 229 0H100Q63 0 63 31ZM275 305H335Q373
305 402 322T445 366T465 417T472 460Q472 536 396 536Q394 536 391 536T387 535H332L275 305Z" />
<glyph unicode="Q" glyph-name="Q" d="M120 68Q120 143 194 418Q231 548 267 583T406 619H431Q500 619 528 603T556 543Q556 491 528 371T475 168Q451 88 431 55T378 7Q396 -112 396 -113Q396 -121 390 -127Q381 -139 359 -139H326Q299 -139 297 -115Q282 -10
282 -8H252Q183 -8 152 6T120 68ZM210 113Q210 88 225 79T271 67Q269 85 267 101T263 127T261 141Q261 171 300 171H336Q348 171 350 167T357 138Q360 117 363 101Q388 143 427 299T466 497Q466 523 449 533T397 544Q370 544 351 538T321 519T308 501T299 482Q280
434 245 295T210 113Z" />
<glyph unicode="R" glyph-name="R" d="M63 31Q64 51 72 61T87 73T104 75H127L242 535H236Q197 535 197 569Q197 611 237 611H392Q464 611 493 577T523 492Q523 437 494 381T416 297Q437 261 437 226Q437 203 423 149T408 76V67Q415 76 418 94T431 121T463 130H466Q505
130 505 99Q505 71 477 32T406 -8Q370 -8 348 15T325 80Q325 106 339 159T353 225Q353 268 312 268H261L213 75H220Q259 75 259 43Q259 0 216 0H100Q63 0 63 31ZM280 343H309Q348 343 375 358T415 396T432 437T437 469Q437 535 363 535H328L280 343Z" />
<glyph unicode="S" glyph-name="S" d="M91 21Q91 26 127 172Q131 187 137 194T149 202T167 203H174Q211 203 211 174Q211 168 209 155T207 135Q207 98 231 83T290 67Q327 67 354 93T393 149T405 206Q405 219 402 229T396 246T384 257T373 263T360 267T348 271Q343
273 323 278T292 287T264 298T236 315T215 339T198 372T193 416Q193 461 214 506T281 585T388 619Q443 619 488 585Q498 600 501 604T512 614T531 619Q548 619 555 610T563 590Q563 585 527 440Q522 420 514 414T487 408Q486 408 484 408T480 407Q469 407 462 408T449
418T442 441Q442 447 443 457T444 473Q444 544 383 544Q335 543 305 505T275 425Q275 401 289 387T323 367T372 354T421 336Q446 323 466 293T486 215Q486 168 466 119T398 31T286 -8Q218 -8 168 28Q153 5 145 -1T123 -8Q108 -8 100 0T91 21Z" />
<glyph unicode="T" glyph-name="T" d="M150 31Q150 76 191 76Q191 76 196 75H238L353 535H282Q268 469 259 455T226 441H221Q183 441 182 471Q182 482 207 580Q211 597 219 604T245 611H567Q605 611 605 580Q605 577 579 470Q572 441 541 441H538Q522 441 518
442Q495 449 495 470Q495 475 510 535H438L324 75H352Q392 75 392 44Q392 0 350 0H190Q150 0 150 31Z" />
<glyph unicode="U" glyph-name="U" d="M138 137Q138 170 149 214L229 535H216Q179 535 179 566Q179 611 219 611H346Q384 611 384 580Q384 535 341 535H315Q312 521 304 493L230 197Q222 165 222 136Q222 67 271 67Q284 67 298 72T331 93T368 144T400 229L477
535H464Q427 535 427 566Q427 611 466 611H594Q632 611 632 580Q632 535 588 535H562L482 214Q476 188 467 162Q440 82 385 37T268 -8Q218 -8 178 25T138 137Z" />
<glyph unicode="V" glyph-name="V" d="M198 566Q198 611 239 611H344Q381 611 381 580Q381 535 341 535H325Q320 410 309 295T290 126L281 74Q304 165 467 535H465Q446 535 438 545T429 566Q429 611 471 611H577Q596 611 604 601T612 581Q612 535 569 535H552L334
42Q322 14 311 5T272 -5H245Q211 -4 211 28V35L236 478Q238 516 240 535Q198 535 198 566Z" />
<glyph unicode="W" glyph-name="W" d="M145 22V32L210 485Q211 494 213 511T217 536L212 538Q208 540 204 542T197 551T193 566Q193 611 233 611H313Q350 611 350 576Q350 535 306 535H285Q269 412 250 298T220 130L209 77Q222 130 258 230T306 346Q323 368 355
368Q391 368 391 335Q391 298 382 234T363 124L354 78Q366 134 506 535H502Q489 535 482 536T468 545T460 567Q460 611 499 611H579Q617 611 617 580Q617 535 574 535Q571 526 565 509T555 482L394 32Q383 -5 344 -5H341Q302 -5 302 24L304 54Q310 133 315 178T327
252T334 289Q324 248 299 182T254 70T233 23Q218 -5 183 -5H178Q145 -5 145 22Z" />
<glyph unicode="X" glyph-name="X" d="M71 31Q71 58 84 67T112 76L116 75H139L299 328L265 535H252Q231 535 223 545T215 567Q215 611 257 611H352Q373 611 381 601T390 580Q390 537 355 535L370 448L425 537Q405 548 405 566Q405 585 413 596T429 609T443 611H543Q580
611 580 580Q580 535 536 535H512L386 338L381 327L382 315L421 75H434Q470 75 470 44Q470 0 428 0H324Q287 0 287 31Q287 75 328 75H332L312 219L226 75Q229 75 234 74T248 64T256 44Q256 0 214 0H110Q94 0 85 6T74 19T71 31Z" />
<glyph unicode="Y" glyph-name="Y" d="M173 31Q174 51 182 61T197 73T214 75H238L280 245L245 535H236Q198 535 198 566Q198 611 240 611H344Q381 611 381 580Q381 535 340 535H335Q346 421 346 382Q346 357 341 317Q356 369 456 535Q427 541 427 567Q427 574
429 582T441 600T470 611H574Q612 611 612 580Q612 553 599 544T571 535H545L373 259L365 245L322 75H331Q369 75 369 41Q369 33 367 25T354 9T328 0H210Q173 0 173 31Z" />
<glyph unicode="Z" glyph-name="Z" d="M88 24Q90 50 107 73L473 535H310Q296 468 287 455T252 441H248Q210 441 210 470Q210 475 234 574Q237 587 239 593T251 605T274 611H558Q588 611 588 587Q587 556 569 538L203 75H381Q404 167 409 175Q423 189 447 189Q469
189 477 180T485 160Q485 152 457 39Q453 25 451 19T441 7T417 0H119Q88 0 88 24Z" />
<glyph unicode="[" glyph-name="bracketleft" d="M198 -52Q198 -42 201 -32L374 659Q379 678 387 686T415 694H577Q614 694 614 663Q614 630 590 621Q584 619 570 619H450L293 -8H399Q438 -8 438 -42Q438 -83 396 -83H230Q212 -82 205 -73T198 -52Z" />
<glyph unicode="\" glyph-name="backslash" d="M255 656Q255 672 266 683T292 694Q299 694 304 692T314 688T321 681T325 674T328 666T330 658T332 652V649L421 -31Q422 -36 422 -45Q422 -62 411 -72T385 -83Q354 -83 346 -38L256 642Q255 647 255 656Z" />
<glyph unicode="]" glyph-name="bracketright" d="M63 -53Q63 -18 86 -10Q92 -8 106 -8H227L384 619H278Q238 619 238 653Q238 694 279 694H446Q460 694 469 686T479 663Q479 657 475 643L303 -48Q298 -68 290 -75T262 -83H99Q63 -83 63 -53Z" />
<glyph unicode="^" glyph-name="asciicircum" d="M216 476Q216 479 216 482T218 487T220 492T223 495T227 499T231 501T235 503T239 505T244 508L247 509Q392 569 397 569H398Q406 569 523 507Q547 494 547 476Q547 462 532 444T502 425H500Q493 425 453 449Q424
466 402 479Q390 486 378 480Q359 471 340 463T311 449T290 439T274 432T263 428T256 426T250 425Q236 425 228 438T218 460T216 476Z" />
<glyph unicode="_" glyph-name="underscore" d="M70 -72Q70 -64 73 -56T87 -39T119 -30H368Q396 -30 406 -44T417 -72Q417 -80 415 -88T400 -105T368 -114H119Q91 -114 81 -101T70 -72Z" />
<glyph unicode="`" glyph-name="grave" d="M287 596Q287 613 299 627T330 641Q340 641 436 609Q464 599 464 578Q464 566 452 546T422 526Q413 526 362 543T307 562Q287 572 287 596Z" />
<glyph unicode="a" glyph-name="a" d="M117 143Q117 207 142 275T220 396T341 448Q387 448 424 417H425Q443 435 461 435Q477 435 488 425T500 397Q500 388 496 376L433 124Q427 98 427 92Q427 85 430 80T435 74T440 72Q455 72 473 138Q480 164 487 170T519 177H521Q560
177 560 148Q560 142 554 121T536 70T497 18T438 -4Q384 -4 356 40Q303 -4 243 -4Q195 -4 156 31T117 143ZM201 142Q201 113 212 92T248 71Q286 71 319 111T368 204T384 300Q384 373 336 373Q307 373 271 339T212 221Q201 173 201 142Z" />
<glyph unicode="b" glyph-name="b" d="M119 566Q119 611 161 611H271Q310 611 310 580Q310 575 272 423Q322 448 367 448Q429 448 468 408T507 295Q507 230 481 163T397 46T268 -4Q205 -4 166 37T127 149Q127 183 143 249L215 535H157Q119 535 119 566ZM211 148Q211
117 225 94T272 71Q315 71 351 109T405 197T423 293Q423 373 362 373Q299 373 255 300T211 148Z" />
<glyph unicode="c" glyph-name="c" d="M129 159Q129 267 202 357T392 448Q444 448 478 421T512 348Q512 316 498 302T465 287Q450 287 438 298T426 325Q426 329 426 335T427 344Q427 357 417 365T389 373Q309 372 261 303T213 161Q213 71 306 71Q363 71 399 76T445
89T463 101T482 107Q495 107 510 92T526 62Q526 47 510 33T441 8T302 -4Q253 -4 218 11T164 51T137 103T129 159Z" />
<glyph unicode="d" glyph-name="d" d="M117 143Q117 207 142 275T220 396T341 448Q387 448 422 420L450 535H404Q366 535 366 568Q366 611 408 611H507Q545 611 545 580Q545 568 543 562L431 117Q427 101 427 93Q427 86 430 81T435 75T440 73Q450 73 457 90T471
131T480 160Q490 178 521 178Q560 178 560 148Q560 144 557 130T545 92T523 48T488 12T438 -4Q384 -4 356 40Q302 -4 243 -4Q195 -4 156 30T117 143ZM201 142Q201 113 212 92T248 71Q304 71 344 149T384 300Q384 373 336 373Q307 373 271 339T212 221Q201 173 201
142Z" />
<glyph unicode="e" glyph-name="e" d="M128 155Q128 220 158 285T250 399T393 448Q449 448 486 417T523 335Q523 320 519 304T502 264T457 220T378 189Q328 178 248 176H213Q212 165 212 158Q212 71 309 71Q365 71 400 76T446 89T464 101T483 107Q497 107 512
91T527 62Q527 47 511 33T442 8T307 -4H302Q252 -4 217 10T163 50T136 100T128 155ZM233 252H245Q272 252 289 252T337 257T388 269T422 293T438 332Q438 351 425 362T388 373Q341 373 299 341T233 252Z" />
<glyph unicode="f" glyph-name="f" d="M44 -157Q44 -133 58 -119T90 -105Q107 -105 118 -117T129 -148Q146 -151 154 -151Q193 -151 214 -75T286 297L298 369H228Q192 369 192 400Q192 444 230 444H312Q313 451 316 470T321 497T326 520T333 544T342 563T354 581T370
595T391 606T418 612T451 615Q570 615 570 546Q570 521 556 508T524 494Q509 494 497 504T485 537Q467 540 447 540H446Q439 540 436 540T428 540T421 537T417 534T413 528T410 519T407 507T405 491T401 470T396 444H485Q522 444 522 413Q522 369 481 369H383V368Q324
18 300 -75Q287 -124 267 -157T224 -203T186 -221T155 -226Q110 -226 77 -211T44 -157Z" />
<glyph unicode="g" glyph-name="g" d="M69 -165Q69 -145 82 -131T115 -117Q146 -117 154 -148Q178 -151 203 -151Q295 -151 331 -89Q337 -90 363 25Q310 0 269 0Q206 0 167 41T128 152Q128 200 144 251T190 347T266 419T367 448Q420 448 463 414Q484 435 501 435Q517
435 528 425T540 397Q540 388 537 377L427 -62Q421 -86 417 -99T398 -133T362 -173Q294 -226 206 -226H194Q69 -226 69 -165ZM212 155Q212 76 274 76Q338 76 380 149T423 294Q423 373 362 373Q317 373 281 334T229 246T212 155Z" />
<glyph unicode="h" glyph-name="h" d="M82 35Q82 38 87 61L206 535H160Q122 535 122 568Q122 583 130 597T159 611H262Q301 611 301 580Q301 571 262 416Q313 448 366 448Q412 448 446 424T481 341Q481 287 416 102Q411 84 415 72H419Q433 72 448 89Q462 105 468
123T477 152T488 170T520 177Q561 177 561 148Q561 136 552 113T525 62T479 16T415 -4Q378 -4 353 20T328 83Q328 102 362 202T397 337Q397 373 359 373Q313 373 274 322T216 211T180 89T162 23Q159 14 148 5T121 -4Q106 -4 94 7T82 35Z" />
<glyph unicode="i" glyph-name="i" d="M137 297Q141 343 189 395T304 448Q347 448 377 423T408 358V352Q408 340 359 216Q334 152 317 108Q313 96 313 90Q313 72 336 72Q360 73 381 94T414 148Q422 169 432 174Q440 177 452 177H457Q469 177 476 176T491 168T498
148Q496 106 448 51T331 -4Q287 -4 257 21T227 86V92Q227 107 275 228T323 354Q323 372 300 372Q274 372 254 350T226 306L218 285Q210 267 184 267H175Q137 267 137 297ZM363 566Q363 585 377 598T408 611T435 599T446 572Q446 553 432 541T401 528Q386 528 375
538T363 566Z" />
<glyph unicode="j" glyph-name="j" d="M90 -166Q90 -145 103 -131T136 -117Q168 -117 175 -150Q177 -150 181 -150T188 -151Q201 -151 215 -147T250 -131T289 -90T318 -19L405 330Q408 339 408 349Q406 373 377 373T321 350T278 294Q270 276 263 272T240 267H227Q193
267 193 295Q193 333 251 390T382 448Q429 448 461 422T493 352Q493 342 483 302L400 -32Q378 -123 319 -174Q259 -226 185 -226Q132 -226 111 -208T90 -166ZM466 566Q466 585 480 598T511 611T538 599T549 572Q549 553 535 541T504 528Q489 528 478 538T466 566Z"
/>
<glyph unicode="k" glyph-name="k" d="M91 34Q91 41 95 55L215 535H154Q119 536 119 569Q119 611 160 611H273Q294 611 302 601T310 580Q310 573 305 553L234 271Q260 290 304 339T389 418T475 448Q542 448 542 370Q542 327 529 301Q515 276 489 276Q472 276 461
287T450 314Q450 320 454 337T461 372Q448 369 437 364T418 354T396 336T373 314T341 280T301 237Q402 208 402 130Q402 123 400 112T398 95Q398 72 424 72Q440 72 452 91T473 136T482 163Q491 177 510 177H523Q560 177 560 148Q560 138 552 115T528 65T484 17T421
-4Q378 -4 346 21T313 90Q313 97 315 109T317 126Q317 168 210 175Q206 154 177 40Q166 -4 131 -4Q114 -4 103 7T91 34Z" />
<glyph unicode="l" glyph-name="l" d="M185 566Q185 573 187 581T199 600T226 611H375Q411 611 411 580Q411 571 410 566L296 110Q294 101 294 97Q297 72 343 72Q358 72 370 84T388 109T399 140T406 159Q414 177 443 177H456Q470 177 478 169T487 148Q487 138
478 115T453 65T406 17T338 -4Q289 -4 249 21T209 94Q209 111 217 140L316 535H224Q185 535 185 566Z" />
<glyph unicode="m" glyph-name="m" d="M45 30Q45 41 64 113T100 231Q107 251 128 336T153 428Q163 444 182 444Q208 444 216 421Q258 448 298 448Q359 448 379 396Q435 448 490 448Q525 448 551 426T578 352Q578 305 546 208T513 91Q513 85 515 75Q532 74 539
65T546 47Q546 38 544 29T534 10T510 0Q485 0 465 20T444 82Q444 120 476 214T509 342Q509 373 485 373Q404 373 326 50Q324 41 323 38Q323 33 321 26T308 8T278 -4Q264 -4 251 5T237 29Q237 51 277 183T317 342Q317 373 295 373L294 372Q273 372 252 352T215 298T193
248T181 215Q165 168 154 127T139 66T131 32T121 11T104 1Q89 -4 86 -4Q73 -4 59 5T45 30Z" />
<glyph unicode="n" glyph-name="n" d="M74 296Q74 298 77 312T88 349T108 394T142 432T191 448Q246 448 270 400Q324 448 389 448Q438 448 466 421T495 344Q495 296 461 193T426 81Q426 74 427 71Q444 75 455 93T473 135T482 162Q490 177 515 177H530Q544 177
552 169T561 148Q561 132 548 99T500 31T423 -4Q387 -4 365 20T342 81Q342 101 376 203T411 340Q411 373 384 373Q342 373 306 321T251 208T217 85T197 18Q184 -4 158 -4Q142 -4 131 6T119 34Q119 37 123 57L189 321Q195 343 195 355Q195 365 187 373Q170 349 165
320T151 279T116 267H109Q91 267 83 276T74 296Z" />
<glyph unicode="o" glyph-name="o" d="M119 154Q119 203 136 254T183 348T262 420T367 448Q425 448 470 411T515 291Q515 224 487 158T401 44T268 -4Q243 -4 219 3T172 27T134 76T119 154ZM203 155Q203 71 273 71Q341 71 386 143T432 290Q432 338 410 355T362
373Q294 373 249 303T203 155Z" />
<glyph unicode="p" glyph-name="p" d="M4 -191Q4 -164 17 -155T45 -146L49 -147H84Q86 -138 90 -122T97 -97L203 330Q207 344 207 352Q207 371 193 371Q183 371 175 351T161 306T150 277Q141 267 124 267H111Q75 267 75 294Q75 314 86 347T127 414T196 448Q251
448 278 404Q332 448 391 448Q442 448 479 412T517 301Q517 240 493 172T416 50T293 -4Q252 -4 212 24L170 -147H216Q254 -147 254 -180Q254 -222 211 -222H44Q4 -222 4 -191ZM250 142Q250 72 297 72Q334 72 366 111T416 203T433 300Q433 373 386 373Q348 373 316
334T267 241T250 142Z" />
<glyph unicode="q" glyph-name="q" d="M127 150Q127 216 154 283T238 399T366 448Q426 448 470 406Q495 448 515 448Q527 448 536 440T545 418L542 400L419 -95Q414 -117 405 -147H462Q501 -147 501 -180Q501 -222 460 -222H243Q205 -222 205 -189Q205 -181 207
-173T219 -156T245 -147H320L362 21Q314 -4 268 -4Q205 -4 166 36T127 150ZM211 148Q211 117 225 94T272 71Q315 71 351 109T405 197T423 293Q423 373 361 373T255 300T211 148Z" />
<glyph unicode="r" glyph-name="r" d="M87 296Q87 304 94 326T115 376T156 426T216 448Q247 448 272 434T309 397Q367 448 436 448Q498 448 538 418T578 338Q578 304 564 290T531 276Q514 276 503 287T492 315Q492 318 492 324T493 334Q493 354 473 363T432 373Q396
373 365 341T313 259T278 161T253 71T240 23Q228 -4 199 -4Q161 -4 161 35Q161 40 163 52L234 336Q235 340 235 348Q235 372 213 372Q201 372 193 358T174 306Q169 287 163 279T152 269T132 267H123Q104 267 96 276T87 296Z" />
<glyph unicode="s" glyph-name="s" d="M98 94Q98 125 112 139T145 153Q161 153 172 143T184 114Q184 111 184 107T183 100Q183 91 191 85Q211 71 276 71Q315 71 343 80T383 102T400 126T405 146Q405 154 401 160T389 171T374 179T353 186T333 191T312 195T294
198Q260 204 236 217T201 247T186 277T182 304Q182 314 184 327T198 363T228 404T283 435T367 448Q424 448 466 428T508 360Q508 332 494 319T461 305Q442 305 432 317T422 352Q420 373 358 373H357Q309 372 287 354T264 314Q264 309 265 306T270 299T277 293T288
288T299 285T312 281T326 278T341 276T356 273Q399 266 428 250T468 215T483 182T487 156Q487 132 477 107T445 56T378 13T272 -4H266Q172 -4 135 26T98 94Z" />
<glyph unicode="t" glyph-name="t" d="M156 399Q157 444 194 444H286V445Q319 582 327 594Q341 615 364 615Q382 615 392 603T403 577Q403 570 372 444H446Q482 444 482 412Q482 369 442 369H353Q349 350 332 284T301 160T286 96Q288 72 317 72T374 95T417 151Q422
163 429 169T441 176T456 177H469Q486 177 494 168T502 148Q502 114 445 55T312 -4Q265 -4 234 23T202 93Q202 94 202 95Q202 109 238 255Q256 323 267 369H193Q156 370 156 399Z" />
<glyph unicode="u" glyph-name="u" d="M74 296Q74 313 88 347T138 414T216 448Q253 448 276 424T299 362Q299 341 268 252T236 119Q236 72 273 72T339 121T382 229T410 348T432 422Q446 444 470 444Q486 444 497 434T509 406Q509 400 504 378L439 118Q434 96 434
92Q434 80 439 76T451 78Q460 90 470 124T481 161Q489 177 525 177T561 148Q561 142 555 121T537 71T500 19T442 -4Q397 -4 365 35Q323 -4 268 -4Q222 -4 187 23T152 117Q152 170 183 261T215 360Q215 368 214 373Q195 370 183 352T162 309T153 281Q144 267 123
267H109Q74 267 74 296Z" />
<glyph unicode="v" glyph-name="v" d="M74 297Q76 336 120 392T229 448Q269 448 296 423T323 359Q323 339 292 255T260 130Q260 71 325 71Q360 71 386 116Q410 158 431 243T453 358Q453 372 449 385T445 404Q445 421 458 434T490 448Q538 448 538 365Q538 315
511 220T445 70Q393 -4 320 -4Q262 -4 219 26T176 127Q176 178 207 264T238 357Q238 372 222 372Q209 372 193 356Q178 341 170 323T159 294T148 275T121 267H110Q74 267 74 297Z" />
<glyph unicode="w" glyph-name="w" d="M90 119Q90 172 119 248T148 344Q148 355 142 367Q141 367 135 368T125 371T116 376T109 384T106 398Q108 444 143 444Q170 444 193 421T217 352Q217 316 189 242T160 128Q160 71 217 71Q236 71 251 88Q282 123 319 273T359
428Q370 444 388 444Q402 444 411 435T421 412Q421 402 389 278T357 125Q357 71 408 71Q438 71 464 135T502 260T514 340Q514 362 507 379T500 404Q500 421 513 434T545 448Q590 448 590 375Q590 331 566 237Q554 192 546 165T524 101T494 45T456 11T405 -4Q338
-4 306 44H305Q270 -4 214 -4Q166 -4 128 24T90 119Z" />
<glyph unicode="x" glyph-name="x" d="M74 296Q74 318 94 352T159 417T258 448Q314 448 353 413Q395 448 449 448Q495 448 523 419T552 344Q552 306 537 291T503 276Q487 276 476 287T465 315Q465 316 466 325T467 341Q467 373 445 373Q434 373 425 370T408 358T397
344T388 326T382 308T377 289T374 275Q337 129 337 114Q337 94 349 83T382 71Q411 71 438 93T476 146Q484 167 491 172T519 177H520Q561 177 561 148Q561 108 508 52T378 -4Q325 -4 282 31Q240 -4 187 -4Q141 -4 113 26T84 101Q84 138 98 153T132 168Q148 168 159
157T171 130Q171 126 170 115T168 99Q168 72 192 72Q201 72 206 74Q242 87 253 133Q298 314 298 330Q298 353 285 363T253 373Q225 373 198 351T160 297Q152 276 145 272T119 267H110Q74 267 74 296Z" />
<glyph unicode="y" glyph-name="y" d="M74 296Q74 332 117 390T224 448Q262 448 288 424T314 361Q314 340 282 253T250 123Q250 71 298 71Q331 71 358 101T401 178T430 272T451 362T467 417Q480 444 509 444Q525 444 536 433T548 406Q548 401 543 381L451 12Q436
-47 411 -92T359 -162T303 -201T252 -221T214 -226Q169 -226 141 -199T112 -131Q112 -98 126 -84T159 -69Q175 -69 186 -80T198 -108Q198 -112 198 -118T197 -128Q197 -150 222 -150Q257 -150 301 -109T366 14Q330 -4 293 -4Q243 -4 205 24T166 120Q166 172 198
263T230 358Q230 372 218 372Q202 372 185 351Q171 332 164 309T150 277T118 267H107Q93 267 85 274T76 286T74 296Z" />
<glyph unicode="z" glyph-name="z" d="M88 25Q88 33 97 49Q122 90 158 130T228 199T305 268T380 340Q375 342 357 349T328 360T306 364Q285 364 269 349T247 321T241 305Q233 288 206 288H201Q162 288 162 318Q162 352 206 400T311 448Q344 448 381 427T426 406Q435
406 440 416T455 437T484 448H494Q532 448 532 420Q532 412 522 394Q494 349 458 310T350 207T249 114Q266 111 302 96T358 80Q386 80 415 106Q434 124 443 143T455 172T466 189T496 196Q513 196 516 195Q524 193 531 186T538 167Q538 151 525 124T489 67T430 17T352
-4Q319 -4 280 18T223 40Q198 40 178 22Q174 19 168 11T155 -1T135 -4H124Q103 -4 96 6T88 25Z" />
<glyph unicode="{" glyph-name="braceleft" d="M152 297Q152 314 157 325T173 339T187 343T198 344Q297 351 318 401Q321 409 363 575Q373 612 391 632Q444 694 570 694H576Q612 694 612 665Q612 635 594 624Q587 619 550 618T485 606Q470 600 461 592T450 577T443
555Q399 379 394 369Q393 366 389 360Q367 324 321 302Q358 269 358 228Q358 211 334 118T312 16Q317 4 340 -1T389 -7T419 -11Q436 -18 436 -40Q436 -83 395 -83H392Q299 -83 263 -53T226 17Q226 35 249 125T273 225Q273 245 251 255T200 268L171 270Q152 277
152 297Z" />
<glyph unicode="|" glyph-name="bar" d="M210 -42Q210 -31 213 -22L381 650Q381 650 382 654Q384 659 384 661T387 668T391 676T396 682T404 688T413 692T425 694Q441 694 454 682T467 653L464 635L296 -36L295 -40Q294 -44 294 -46T292 -53T288 -60T284 -67T278
-73T272 -78T263 -82T252 -83Q235 -83 223 -72T210 -42Z" />
<glyph unicode="}" glyph-name="braceright" d="M64 -53Q64 -24 82 -13Q88 -9 118 -8T178 1T223 28Q226 33 234 62Q250 128 271 208Q289 278 356 309V310Q318 337 318 383Q318 400 341 492T365 590Q365 603 341 611Q324 616 295 617T253 623T240 647Q240 694 280
694H286Q450 692 450 594Q450 578 427 490T404 382Q404 377 405 375Q420 345 490 343Q525 342 525 314Q525 277 499 269Q498 269 485 268T454 264T417 256T382 239T358 210Q354 200 333 111T308 14Q291 -32 239 -57T107 -83H101Q64 -83 64 -53Z" />
<glyph unicode="~" glyph-name="asciitilde" d="M228 509Q228 519 241 535Q309 611 355 611Q377 611 395 597T424 569T443 555Q455 555 483 582T525 610T551 599T565 572Q565 561 543 536Q482 470 438 470Q416 470 398 484T369 512T350 526Q338 526 310 498T269
470Q257 470 243 481T228 509Z" />
</font>
</defs>
</svg>
