<?xml version="1.0" standalone="no"?>
<!DOCTYPE svg PUBLIC "-//W3C//DTD SVG 1.1//EN" "http://www.w3.org/Graphics/SVG/1.1/DTD/svg11.dtd" >
<svg xmlns="http://www.w3.org/2000/svg">
<metadata></metadata>
<defs>
<font id="savateitalique" horiz-adv-x="1064" >
<font-face units-per-em="2048" ascent="1638" descent="-410" />
<missing-glyph horiz-adv-x="552" />
<glyph horiz-adv-x="0" />
<glyph horiz-adv-x="682" />
<glyph unicode=" "  horiz-adv-x="552" />
<glyph unicode="&#x09;" horiz-adv-x="552" />
<glyph unicode="&#xa0;" horiz-adv-x="552" />
<glyph unicode="!" horiz-adv-x="655" d="M221 78q0 60 43 100.5t119 40.5q51 0 81 -30.5t30 -75.5q0 -62 -41.5 -100t-114.5 -38q-54 0 -85.5 30t-31.5 73zM344 410q35 97 49 217q13 115 8 325q0 173 8 240q35 295 242 295q62 0 89.5 -50t27.5 -122q0 -94 -25 -183.5t-58 -153t-79 -162.5t-74 -189 q-31 -93 -45 -217h-143z" />
<glyph unicode="&#x22;" horiz-adv-x="757" d="M369 1018l63 579h256l-207 -579h-112zM727 1018l64 579h256l-207 -579h-113z" />
<glyph unicode="#" d="M88 158l107 254h120l111 290h-135l121 304h129l86 223h118l-86 -223h312l86 223h119l-84 -223h131l-121 -304h-127l-111 -290h135l-92 -254h-139l-98 -260h-127l100 260h-307l-98 -260h-119l98 260h-129zM434 412h307l113 290h-309z" />
<glyph unicode="$" horiz-adv-x="1576" d="M174 254l148 281q19 -94 116.5 -162.5t245.5 -85.5l86 403q-203 32 -283.5 114t-80.5 218q0 188 145 326.5t391 162.5l41 189h139l-39 -187q166 -8 276 -72.5t144 -150.5l-119 -268q-52 54 -145 96t-229 49l-76 -354q122 -19 208 -54t136 -85.5t72 -110.5t22 -135 q0 -195 -161 -316.5t-453 -131.5l-33 -154h-139l32 158q-177 19 -301 94t-143 176zM567 981q0 -102 232 -147l71 333q-303 -21 -303 -186zM821 281q138 3 221 26t117 61.5t35 98.5q2 74 -67 129.5t-222 77.5z" />
<glyph unicode="%" horiz-adv-x="1474" d="M68 -184l1464 1822h184l-1464 -1822h-184zM348 1210q0 145 100 245.5t236 100.5q93 0 155 -63.5t62 -169.5q0 -150 -98.5 -249t-237.5 -99q-93 0 -155 64t-62 171zM451 1243q0 -50 41.5 -78t107.5 -28q87 0 141 36.5t54 88.5t-41 83t-109 31q-88 0 -141 -38t-53 -95z M901 215q0 145 100 245.5t236 100.5q93 0 155 -63.5t62 -169.5q0 -150 -98.5 -249t-237.5 -99q-93 0 -155 64t-62 171zM1004 248q0 -50 41.5 -78.5t107.5 -28.5q87 0 141 36.5t54 88.5t-41 83.5t-109 31.5q-88 0 -141 -38t-53 -95z" />
<glyph unicode="&#x26;" horiz-adv-x="1474" d="M203 328q0 148 81 263t220 157q-82 73 -82 229q0 107 41.5 206t111.5 172t167.5 117t205.5 44q102 0 162 -37l-102 -308q-22 21 -68.5 33.5t-91.5 12.5q-151 0 -225 -41t-74 -113q0 -51 51.5 -82t138.5 -31h109l-57 -264q-112 -12 -185 8q-88 -30 -144 -104.5t-56 -155.5 q0 -89 64.5 -143.5t178.5 -54.5q215 0 360.5 97t161.5 234l-129 -6q-36 -2 -66 -36t-30 -81h-112q0 74 23 137.5t58.5 103.5t77 63.5t80.5 25.5l311 17q48 3 84.5 31.5t36.5 66.5h103q0 -135 -78 -220t-184 -91l-52 -3q-7 -164 -104.5 -301t-260 -215.5t-354.5 -78.5 q-82 0 -152.5 29.5t-118 78.5t-74.5 111.5t-27 128.5z" />
<glyph unicode="'" horiz-adv-x="348" d="M317 1018l64 579h256l-207 -579h-113z" />
<glyph unicode="(" horiz-adv-x="655" d="M188 164q0 284 42.5 529.5t115 420t168.5 299.5t203.5 185.5t218.5 60.5l-121 -385q-73 0 -143.5 -40t-133 -121t-110 -193t-75 -266.5t-27.5 -331.5q0 -164 53.5 -252t132.5 -88l-33 -412q-36 0 -74.5 21t-77.5 68.5t-69.5 114.5t-50 168.5t-19.5 221.5z" />
<glyph unicode=")" horiz-adv-x="655" d="M-4 -430l139 412q53 0 113.5 38.5t120 114t107.5 176t78 236.5t30 282q0 218 -59 331.5t-144 113.5l43 385q145 0 229 -131t84 -402q0 -253 -42.5 -494t-116 -430t-167.5 -333t-201.5 -221.5t-213.5 -77.5z" />
<glyph unicode="*" horiz-adv-x="860" d="M408 1249l98 191l168 -131l-29 231h211l-111 -231l224 131l16 -191h-244l164 -155l-188 -121l-31 227l-131 -227l-133 121l227 155h-241z" />
<glyph unicode="+" d="M250 545l47 227h319l107 354h160l-107 -354h320l-47 -227h-342l-115 -381h-160l115 381h-297z" />
<glyph unicode="," horiz-adv-x="552" d="M14 -324q115 82 184.5 265.5t41.5 314.5h252q-7 -119 -70 -248t-164.5 -228.5t-210.5 -131.5z" />
<glyph unicode="-" horiz-adv-x="655" d="M201 514l37 172h471l-37 -172h-471z" />
<glyph unicode="." horiz-adv-x="655" d="M182 111q0 75 54 125.5t149 50.5q61 0 98 -38t37 -95q0 -74 -52 -119t-140 -45q-65 0 -105.5 36t-40.5 85z" />
<glyph unicode="/" horiz-adv-x="962" d="M49 -358l969 1945h145l-968 -1945h-146z" />
<glyph unicode="0" horiz-adv-x="1269" d="M201 498q0 199 38.5 365.5t107 286t163.5 203t209 123.5t242 40q182 0 303.5 -147t121.5 -386q0 -236 -54.5 -425.5t-153 -316t-236.5 -194t-305 -67.5q-198 0 -317 139t-119 379zM338 598q0 -161 100.5 -246.5t257.5 -85.5q87 0 166.5 20.5t147.5 62.5t118 101.5 t78.5 141.5t28.5 178q0 151 -92 247.5t-266 96.5q-267 0 -403 -124t-136 -392z" />
<glyph unicode="1" horiz-adv-x="860" d="M350 926l80 370q73 0 193 62t151 137h193l-318 -1495h-141l233 1100q-50 -66 -178.5 -120t-212.5 -54z" />
<glyph unicode="2" horiz-adv-x="1269" d="M90 0l27 123q470 298 718 506.5t248 326.5q0 95 -78 149t-206 54q-122 0 -224.5 -41t-168.5 -106l-5 284q78 93 213 156.5t283 63.5q190 0 294.5 -105t104.5 -262q0 -58 -15.5 -117t-38.5 -110.5t-63.5 -107t-77 -99.5t-92.5 -96t-97 -87.5t-104 -83.5t-99.5 -75 t-95.5 -69l-21 -15h592l-62 -289h-1032z" />
<glyph unicode="3" horiz-adv-x="1269" d="M250 205l125 178q42 -56 139.5 -86.5t204.5 -30.5q188 0 295.5 58.5t107.5 158.5q0 36 -15.5 67t-58 59.5t-109 44.5t-177 16t-252.5 -21l508 508h-510l72 338h839l-20 -102l-467 -484q157 -12 241 -106t84 -240q0 -265 -168 -424t-450 -159q-124 0 -227.5 61.5 t-161.5 163.5z" />
<glyph unicode="4" horiz-adv-x="1269" d="M205 371l35 157l698 967h336l-205 -967h156l-35 -157h-156l-78 -371h-141l78 371h-688zM510 528h418l153 727z" />
<glyph unicode="5" horiz-adv-x="1269" d="M197 303l155 123q23 -71 118 -128.5t235 -57.5q200 0 308.5 70.5t108.5 170.5q0 82 -85 135.5t-246 53.5q-226 0 -310 -99l-133 142l307 782h701l-62 -336h-628l-138 -354q39 47 144.5 75.5t234.5 28.5q157 0 253.5 -95.5t96.5 -246.5q0 -258 -170 -422.5t-440 -164.5 q-184 0 -305 85t-145 238z" />
<glyph unicode="6" horiz-adv-x="1269" d="M266 410q0 192 42.5 367.5t114.5 307.5t165 230.5t197.5 149.5t207.5 51q123 0 203.5 -36t136.5 -108l-106 -256q-39 48 -111 65t-198 17q-358 0 -459 -401q146 166 420 166q174 0 276 -113.5t102 -288.5q0 -122 -40.5 -227.5t-116 -184.5t-191.5 -124t-258 -45 q-186 0 -285.5 116.5t-99.5 313.5zM389 451q0 -96 85 -152.5t239 -56.5q203 0 306 72.5t103 177.5q0 88 -81.5 144t-231.5 56q-105 0 -188.5 -22t-132.5 -57.5t-74 -77t-25 -84.5z" />
<glyph unicode="7" d="M270 0q39 179 166 411t275 422.5t270 292.5h-645l78 369h872l-63 -299q-148 -141 -274 -283t-234.5 -295t-184.5 -311.5t-108 -306.5h-152z" />
<glyph unicode="8" horiz-adv-x="1269" d="M219 373q0 289 287 411q-63 39 -96 106t-33 150q0 205 162 340.5t419 135.5q172 0 273.5 -94.5t101.5 -258.5q0 -123 -56.5 -239.5t-176.5 -200.5q127 -98 127 -281q0 -94 -38 -177t-110.5 -147t-187.5 -101t-260 -37q-189 0 -300.5 114.5t-111.5 278.5zM346 387 q0 -65 88 -117.5t248 -52.5q195 0 309.5 77t114.5 177q0 58 -30 110.5t-83 82.5q-102 -48 -231 -68q-227 -37 -321.5 -84.5t-94.5 -124.5zM492 985q-2 -48 37.5 -91.5t111.5 -64.5q97 21 178 31q92 11 154 23t115.5 31t79.5 47t26 67q0 59 -82.5 105.5t-224.5 46.5 q-196 0 -295.5 -59t-99.5 -136z" />
<glyph unicode="9" horiz-adv-x="1269" d="M252 207l125 180q30 -48 118 -83.5t189 -35.5q183 0 303 105.5t162 324.5q-64 -91 -172 -138.5t-246 -47.5q-176 0 -279.5 113t-103.5 303q0 110 43 215.5t119.5 188.5t191.5 133.5t248 50.5q186 0 287.5 -117.5t101.5 -319.5q0 -251 -54.5 -460t-148 -347.5t-217 -215 t-262.5 -76.5q-152 0 -258 69t-147 158zM471 928q0 -78 82.5 -135.5t230.5 -57.5q217 0 319.5 73.5t102.5 188.5q0 84 -83 135.5t-244 51.5q-214 0 -311 -69.5t-97 -186.5z" />
<glyph unicode=":" horiz-adv-x="552" d="M150 193q0 75 53.5 125.5t148.5 50.5q61 0 98 -38t37 -95q0 -74 -52 -119t-140 -45q-65 0 -105 36t-40 85zM287 807q0 75 53.5 125.5t148.5 50.5q62 0 99 -38t37 -95q0 -74 -52 -119t-141 -45q-65 0 -105 36t-40 85z" />
<glyph unicode=";" horiz-adv-x="552" d="M14 -324q115 82 184.5 265.5t41.5 314.5h252q-7 -119 -70 -248t-164.5 -228.5t-210.5 -131.5zM295 807q0 75 54 125.5t149 50.5q61 0 98 -38t37 -95q0 -74 -52 -119t-141 -45q-65 0 -105 36t-40 85z" />
<glyph unicode="&#x3c;" d="M225 514l43 201l908 432l-62 -287l-756 -244l662 -198l-53 -254z" />
<glyph unicode="=" d="M217 344l47 223h776l-47 -223h-776zM313 791l47 223h777l-47 -223h-777z" />
<glyph unicode="&#x3e;" d="M168 164l53 254l750 198l-656 244l62 287l723 -432l-43 -201z" />
<glyph unicode="?" d="M334 1169q154 342 522 342q166 0 260 -103t94 -263q0 -196 -126 -341.5t-316 -170.5q-103 -15 -136 -27q-95 -35 -95 -129q0 -47 20 -121l-104 -16q-20 35 -34 89.5t-16 98.5q0 318 402 365q153 17 211.5 48.5t58.5 96.5q1 28 -12.5 54t-43.5 51t-89 40t-139 15 q-254 0 -363 -149zM360 86q0 152 177 152q50 0 79 -34.5t29 -86.5q0 -57 -45 -97t-117 -40q-58 0 -90.5 30.5t-32.5 75.5z" />
<glyph unicode="@" horiz-adv-x="1781" d="M212.5 220q-9.5 113 6.5 239q23 219 111.5 410t218 323t292.5 207.5t333 75.5q350 0 515.5 -181t127.5 -549q-16 -152 -56.5 -278t-92 -205.5t-112.5 -134t-115 -77.5t-102 -23q-78 0 -111.5 28.5t-43.5 106.5q-50 -66 -136.5 -102.5t-195.5 -36.5q-129 0 -209 97 t-80 273q0 273 143.5 452t346.5 179q116 0 219.5 -39t157.5 -98l-127 -580q-15 -51 -3.5 -80.5t66.5 -29.5q78 0 147 69t112 176.5t56 229.5q29 269 -100 411t-448 142q-146 0 -281 -55t-241 -153t-176.5 -242.5t-88.5 -315.5q-16 -152 7.5 -267t89.5 -199t185 -127.5 t290 -43.5q225 0 417 100l47 -133q-89 -92 -214 -145.5t-257 -53.5q-138 0 -250 29.5t-191 84t-136 132.5t-84.5 174.5t-37 209.5zM680 434q-3 -86 59.5 -145t159.5 -60q91 -2 168 22t121 73l76 358q-43 28 -109.5 45.5t-134.5 17.5q-149 0 -241.5 -87t-98.5 -224z" />
<glyph unicode="A" horiz-adv-x="1372" d="M41 0l825 1495h246l219 -1495h-145l-68 414h-588l-249 -414h-240zM623 569h469l-101 611z" />
<glyph unicode="B" horiz-adv-x="1372" d="M174 0l318 1495h518q95 0 169.5 -26.5t120 -73t68.5 -105.5t23 -127v-8q0 -312 -228 -405q63 -27 96 -94.5t33 -151.5v-5q0 -95 -34 -183q-35 -90 -100.5 -161t-170 -113t-233.5 -42h-580zM385 328h496q135 0 207.5 56.5t72.5 143.5q0 62 -53.5 104t-165.5 42h-483z M489 821h488q139 0 197 49q56 47 55 132v6q2 65 -50 112t-171 47h-445z" />
<glyph unicode="C" horiz-adv-x="1372" d="M213 520q0 165 33 315t98 274t155.5 215t211 141.5t258.5 50.5q204 0 337.5 -125.5t155.5 -329.5l-174 -137q-32 78 -140.5 134t-275.5 56q-125 0 -224.5 -36.5t-163 -100.5t-97 -149t-33.5 -185q0 -97 56.5 -185t150.5 -141t197 -53q170 0 301.5 57.5t187.5 161.5 l96 -92q-51 -115 -140 -205t-226 -148t-297 -58q-127 0 -233 66.5t-170 191t-64 282.5z" />
<glyph unicode="D" horiz-adv-x="1372" d="M125 0l317 1495h500q220 0 350.5 -145.5t130.5 -401.5q0 -210 -62.5 -389t-170 -300.5t-252 -190t-307.5 -68.5h-506zM332 295h430q137 0 254.5 57.5t188.5 162t71 233.5q0 106 -42.5 193.5t-128.5 141.5t-200 54h-395z" />
<glyph unicode="E" horiz-adv-x="1269" d="M184 0l318 1495h880l-77 -369h-742l-65 -311h561l-39 -176h-559l-78 -371h750l-58 -268h-891z" />
<glyph unicode="F" horiz-adv-x="1167" d="M172 0l317 1495h859l-80 -375h-713l-66 -309h555l-55 -262h-557l-117 -549h-143z" />
<glyph unicode="G" horiz-adv-x="1474" d="M270 532q0 210 56.5 392.5t155.5 312.5t240.5 204.5t305.5 74.5q214 0 336.5 -108t140.5 -298l-162 -137q-91 160 -393 160q-136 0 -240 -38t-168 -106.5t-98.5 -156t-40.5 -193.5q0 -77 20 -142.5t61 -118.5t112 -83.5t166 -30.5q207 0 346.5 82t185.5 250h-407l33 149 h526l-27 -116l-133 -629h-106l16 166q-178 -186 -500 -186q-212 0 -319 148t-107 404z" />
<glyph unicode="H" horiz-adv-x="1372" d="M166 0l317 1495h142l-121 -573h762l120 573h142l-318 -1495h-139l119 563h-762l-119 -563h-143z" />
<glyph unicode="I" horiz-adv-x="962" d="M123 0l61 289h291l178 837h-278l78 369h692l-78 -369h-270l-179 -837h283l-61 -289h-717z" />
<glyph unicode="J" horiz-adv-x="962" d="M76 119l100 233q46 -42 119.5 -65t150.5 -23q127 0 214.5 89.5t127.5 273.5l109 510h-420l76 358h557l-197 -930q-65 -311 -190 -448t-330 -137q-107 0 -199 37t-118 102z" />
<glyph unicode="K" horiz-adv-x="1269" d="M184 0l320 1499h141l-139 -655l668 651h385l-736 -684l381 -811h-176l-332 690l-278 -258l-92 -432h-142z" />
<glyph unicode="L" horiz-adv-x="962" d="M119 0l317 1495h135l-254 -1198h598l-63 -297h-733z" />
<glyph unicode="M" horiz-adv-x="1781" d="M195 0l317 1495h330l110 -1251l650 1251h301l-318 -1495h-139l256 1204l-676 -1204h-238l-188 1214l-258 -1214h-147z" />
<glyph unicode="N" horiz-adv-x="1474" d="M176 0l318 1495h331l381 -1280l271 1280h141l-318 -1495h-288l-437 1210l-258 -1210h-141z" />
<glyph unicode="O" horiz-adv-x="1474" d="M270 522q0 233 60 423t164.5 314t244.5 190.5t303 66.5q208 0 345 -153.5t137 -399.5q0 -221 -60.5 -407t-164.5 -311t-244 -195t-299 -70q-212 0 -349 149t-137 393zM408 666q1 -114 58 -207t150 -144t201 -51q88 0 166 15.5t151 52t125 92t83.5 141t31.5 193.5 q1 70 -27 133.5t-80 113.5t-133 79.5t-178 29.5q-137 0 -244 -36t-172 -99t-98.5 -142.5t-33.5 -170.5z" />
<glyph unicode="P" horiz-adv-x="1269" d="M135 0l318 1495h440q215 0 331.5 -110.5t116.5 -309.5q0 -312 -182.5 -499t-503.5 -187h-297l-82 -389h-141zM424 692h375q191 0 295 66.5t104 173.5q0 95 -77.5 161t-221.5 66h-377z" />
<glyph unicode="Q" horiz-adv-x="1474" d="M291 522q0 233 60 423t164.5 314t244.5 190.5t303 66.5q208 0 344.5 -153.5t136.5 -399.5q0 -305 -110 -534t-297 -347l108 -256h-178l-74 188q-103 -34 -217 -34q-212 0 -348.5 149t-136.5 393zM428 666q1 -113 58 -206.5t150.5 -144.5t201.5 -51q39 0 57 2l-123 312 h154l123 -287q157 43 251.5 157.5t94.5 309.5q1 70 -27 133.5t-80 113.5t-133 79.5t-178 29.5q-137 0 -244 -36t-172.5 -99t-99 -142.5t-33.5 -170.5z" />
<glyph unicode="R" horiz-adv-x="1372" d="M174 0l318 1495h436q206 0 313 -106t107 -279q0 -145 -42.5 -259t-132 -189.5t-217.5 -96.5l56 -203q23 -82 79 -129t146 -47l-39 -186q-33 -20 -82 -20q-58 0 -105 40.5t-67 106.5l-133 430h-379l-119 -557h-139zM483 784h371q348 0 348 215q0 73 -68.5 119.5 t-199.5 46.5h-369z" />
<glyph unicode="S" horiz-adv-x="1372" d="M154 254l147 281q22 -109 146.5 -181.5t306.5 -72.5q156 0 250 22q93 21 131 61q39 41 39 107q0 77 -78 133q-80 58 -262 76q-129 13 -218 42t-139 74t-71 99.5t-21 126.5q0 99 43.5 188t122 157t198.5 108.5t263 40.5q187 0 311.5 -66.5t159.5 -159.5l-119 -268 q-56 58 -162 102.5t-260 44.5q-395 0 -395 -188q0 -120 327 -162q133 -17 227 -52t148.5 -86.5t78.5 -113t24 -139.5q0 -203 -174 -325.5t-488 -122.5q-207 0 -360.5 79.5t-175.5 194.5z" />
<glyph unicode="T" horiz-adv-x="1167" d="M317 1126l78 369h1012l-78 -369h-432l-240 -1126h-141l240 1126h-439z" />
<glyph unicode="U" horiz-adv-x="1474" d="M297 602l190 893h131l-157 -739q-22 -97 -22 -169q0 -95 38 -147q92 -123 330 -123q232 0 369 123q102 94 145 299l160 756h135l-189 -889q-67 -318 -247.5 -472t-450.5 -154q-261 0 -379 154q-76 99 -77 264q0 92 24 204z" />
<glyph unicode="V" horiz-adv-x="1474" d="M262 1495h156l194 -1219l721 1217h299l-903 -1493h-244z" />
<glyph unicode="W" horiz-adv-x="1884" d="M369 1495h145l86 -1212l516 944h117l80 -930l585 1196h256l-755 -1493h-217l-66 756l-424 -756h-225z" />
<glyph unicode="X" horiz-adv-x="1576" d="M39 0l682 831l-309 705h155l262 -573l469 573h314l-668 -825l324 -711h-183l-251 573l-463 -573h-332z" />
<glyph unicode="Y" horiz-adv-x="1372" d="M383 1495h145l234 -764l557 764h297l-778 -1020l-101 -475h-141l111 516z" />
<glyph unicode="Z" horiz-adv-x="1372" d="M109 0l18 84l991 1032h-706l82 379h1105l-14 -63l-1077 -1143h795l-62 -289h-1132z" />
<glyph unicode="[" horiz-adv-x="655" d="M14 -410l437 2048h391l-76 -356h-252l-285 -1335h254l-75 -357h-394z" />
<glyph unicode="\" horiz-adv-x="962" d="M467 1587h145l142 -1945h-146z" />
<glyph unicode="]" horiz-adv-x="655" d="M72 -410l75 357h254l285 1335h-256l76 356h395l-436 -2048h-393z" />
<glyph unicode="^" horiz-adv-x="962" d="M242 481l14 70q95 16 214 104.5t189 184.5h41q31 -97 111.5 -185t169.5 -104l-14 -70q-112 -8 -218 22.5t-122 88.5q-39 -58 -157.5 -88.5t-227.5 -22.5z" />
<glyph unicode="_" d="M72 0l32 145h918l-31 -145h-919z" />
<glyph unicode="`" d="M569 1339l43 258q112 22 222.5 -8.5t187 -108t88.5 -180.5l-35 -45q-59 94 -219 119.5t-287 -35.5z" />
<glyph unicode="a" d="M193 414q0 158 44 296.5t118 234t175 150t213 54.5q131 0 252 -42t172 -99l-143 -668q-20 -96 -20 -340h-134v115q-60 -65 -154 -100t-208 -35q-141 0 -228 113t-87 321zM322 461v-13q0 -92 64 -157q70 -69 179 -70h15q96 1 177 25q88 26 140 82l88 422 q-49 34 -124.5 53.5t-155.5 19.5q-168 0 -272.5 -101.5t-110.5 -260.5z" />
<glyph unicode="b" d="M166 244l289 1353h131l-137 -643q62 99 154 146t192 47q150 0 246 -107.5t96 -296.5q0 -219 -76 -393.5t-209.5 -272t-298.5 -97.5q-161 0 -274 80.5t-113 183.5zM313 330q74 -109 289 -109q177 0 285 99.5t108 254.5q0 99 -69.5 173.5t-192.5 74.5q-164 0 -255 -75 t-118 -203z" />
<glyph unicode="c" d="M190 385q0 235 76.5 409t209.5 263.5t304 89.5q308 0 348 -277l-131 -178q-34 63 -97.5 97t-178.5 34q-171 -1 -289 -109q-110 -101 -111 -229q0 -10 1 -20q2 -105 72.5 -181.5t199.5 -76.5q246 0 340 127l98 -105q-76 -121 -198.5 -185t-282.5 -64q-154 0 -257.5 111.5 t-103.5 293.5z" />
<glyph unicode="d" d="M174 383q0 359 156 563q154 202 402 201h5q101 0 181 -51.5t106 -151.5l139 653h129l-340 -1597h-108l22 166q-64 -87 -162 -136.5t-206 -49.5q-154 0 -239 111.5t-85 291.5zM303 471q0 -110 65 -180t189 -70q116 0 196.5 26.5t141.5 94.5l45 203q8 34 8 65q0 22 -4 42 q-9 50 -36.5 85.5t-85.5 56.5t-142 21q-165 0 -271 -102t-106 -242z" />
<glyph unicode="e" d="M190 406q0 187 45.5 331t126.5 232.5t187 133t233 44.5q151 0 246.5 -97t95.5 -255q0 -173 -108 -250.5t-365 -91.5l-332 -17q9 -109 82.5 -168.5t204.5 -60.5h13q234 0 329 102l78 -71q-66 -119 -194 -188.5t-291 -69.5q-88 0 -156.5 34t-110 93t-63 134.5t-21.5 164.5z M326 555l389 25q139 9 208.5 49.5t69.5 99.5q0 127 -280 127q-147 0 -253.5 -81t-133.5 -220z" />
<glyph unicode="f" horiz-adv-x="757" d="M-156 -344l113 268q38 -55 131 -55q157 0 223 299l125 582h-162l72 335h129q6 136 46 241.5t102.5 167.5t134 93t147.5 31q115 0 176 -45l-69 -283q-40 29 -156 29q-99 0 -165.5 -62t-78.5 -172h262l-71 -335h-238l-125 -582q-67 -313 -162.5 -455.5t-236.5 -142.5 q-140 0 -197 86z" />
<glyph unicode="g" d="M78 -246l78 203q88 -127 307 -127q178 0 270.5 86.5t145.5 296.5q-152 -152 -355 -152q-165 0 -255.5 95t-90.5 276q0 341 151.5 528t430.5 187q98 0 169 -47t109 -135l35 161h117l-135 -614q-43 -203 -81.5 -345.5t-82.5 -250.5t-88.5 -172.5t-105 -105t-125.5 -54.5 t-156 -14q-131 0 -218.5 50t-119.5 134zM307 504q1 -110 73 -166.5t195 -56.5q124 0 222.5 51.5t138.5 146.5l22 107v12q-2 100 -66.5 162.5t-201.5 62.5q-96 0 -173 -27.5t-123 -73.5t-69 -102q-19 -46 -19 -95q0 -10 1 -21z" />
<glyph unicode="h" d="M115 0l340 1597h127l-136 -636q107 186 365 186q125 0 208 -93t83 -261q0 -190 -69 -399t-218 -394h-125q123 160 182.5 309t59.5 273q0 103 -53 158t-154 55q-243 0 -358 -207l-125 -588h-127z" />
<glyph unicode="i" horiz-adv-x="655" d="M252 743l74 342h376l-235 -1085h-129l158 743h-244zM451 1413q0 205 221 205q66 0 103.5 -33.5t37.5 -93.5q0 -92 -58 -151.5t-155 -59.5q-72 0 -110.5 36t-38.5 97z" />
<glyph unicode="j" horiz-adv-x="655" d="M-57 -303l100 205q23 -36 63 -52q35 -14 71 -14h9q76 3 122 45t67 142l155 731h-247l75 352h377l-264 -1243q-31 -141 -109.5 -217t-195.5 -76q-91 0 -146.5 36.5t-76.5 90.5zM461 1413q0 205 221 205q66 0 103.5 -33.5t37.5 -93.5q0 -92 -58 -151.5t-155 -59.5 q-72 0 -110.5 36t-38.5 97z" />
<glyph unicode="k" d="M115 0l340 1597h129l-138 -647q121 197 357 197q156 0 245 -82.5t89 -218.5q0 -212 -128 -340.5t-378 -134.5l338 -371h-197l-424 492l-104 -492h-129zM348 494h2l-2 2v-2zM371 594q108 -68 291 -68q148 0 230.5 56.5t82.5 146.5q0 50 -61 84q-59 33 -172 33h-7 q-151 -1 -241.5 -50.5t-108.5 -133.5v2z" />
<glyph unicode="l" horiz-adv-x="757" d="M293 305l209 985h-156l66 307h290l-241 -1136q-9 -41 -9 -73q0 -122 128 -122q118 0 188 64l8 -224q-109 -126 -293 -126q-133 0 -179 78q-26 44 -27 116q0 57 16 131z" />
<glyph unicode="m" horiz-adv-x="1679" d="M133 0l240 1126h129l-37 -170q109 191 317 191q133 0 196 -55.5t73 -186.5q59 120 152.5 181t234.5 61q137 0 205.5 -78t68.5 -229q0 -50 -24.5 -173.5t-141.5 -666.5h-125q74 291 97.5 411t23.5 183q0 92 -52.5 146.5t-137.5 54.5q-224 0 -338 -226q-53 -272 -117 -569 h-125q75 299 99 421t24 185q0 89 -55.5 139t-149.5 50q-188 0 -299 -193l-129 -602h-129z" />
<glyph unicode="n" d="M115 0l239 1126h129l-37 -174q118 195 371 195q291 0 291 -309q-2 -59 -30.5 -213t-127.5 -625h-125q79 346 99 456q19 101 18 147v9q0 87 -56.5 136t-152.5 49q-134 0 -218 -43t-142 -154l-129 -600h-129z" />
<glyph unicode="o" d="M172 397q0 346 168.5 548t439.5 202q165 0 260 -109.5t96 -306.5q0 -214 -74.5 -384.5t-213 -268.5t-318.5 -98q-162 0 -260 113t-98 304zM299 461q3 -118 81.5 -180t201.5 -62q348 0 409 303q6 28 6.5 55.5t-6.5 54.5q-13 54 -43 96.5t-92 68.5t-145 26 q-99 0 -179.5 -32.5t-130 -85.5t-76 -116t-26.5 -128z" />
<glyph unicode="p" d="M27 -410l327 1536h129l-37 -172q65 98 160.5 145.5t204.5 47.5q144 0 233 -102.5t89 -292.5q0 -347 -160 -559.5t-422 -212.5q-188 0 -281 147l-114 -537h-129zM326 387q20 -77 93.5 -120.5t174.5 -45.5h10q172 0 279 98q110 101 110 277q0 100 -72.5 165.5t-191.5 65.5 q-159 0 -248 -64.5t-112 -176.5z" />
<glyph unicode="q" d="M170 393q0 208 75.5 381t207.5 273t290 100q98 0 176 -50.5t103 -150.5l39 180h129l-328 -1536h-129l113 529q-145 -139 -338 -139q-153 0 -245.5 111t-92.5 302zM299 471v-7q0 -106 63 -174q64 -69 185 -69q237 0 358 168l37 162q7 34 7 64q0 80 -47 135q-65 75 -216 75 q-165 0 -276 -106t-111 -248z" />
<glyph unicode="r" horiz-adv-x="860" d="M254 0l164 772h-160l76 354h207l34 -159q51 87 126 133.5t141 46.5t102 -18t74 -58l-150 -340q-14 76 -143 76q-75 0 -134.5 -59t-82.5 -164l-125 -584h-129z" />
<glyph unicode="s" d="M147 190l93 205q82 -153 354 -153q254 0 254 114q0 36 -57.5 69.5t-169.5 57.5q-166 35 -243 99t-77 178q0 168 125 277.5t338 109.5q266 0 330 -180l-84 -215q-32 54 -119 88t-211 34q-240 0 -240 -120q0 -36 55.5 -68.5t168.5 -54.5q176 -35 255.5 -105t79.5 -184 q0 -175 -121 -268.5t-366 -93.5q-299 0 -365 210z" />
<glyph unicode="t" horiz-adv-x="860" d="M250 786l67 320h160l55 266h130l-56 -266h295l-67 -320h-295l-72 -331q-9 -42 -9 -75q0 -124 130 -126h7q57 0 107 16q52 18 84 47l9 -206q-39 -60 -120.5 -95.5t-168.5 -35.5q-213 0 -213 212q0 54 14 121l101 473h-158z" />
<glyph unicode="u" d="M217 506l131 620h129l-115 -534q-18 -83 -17 -145q1 -71 23 -113q44 -80 193 -80q114 0 207.5 50.5t146.5 139.5l146 682h129l-154 -720q-32 -149 -32 -406h-134v182q-54 -97 -154.5 -149.5t-244.5 -52.5q-157 0 -231 139q-44 82 -44 202q0 83 21 185z" />
<glyph unicode="v" d="M287 1126h139l129 -890q164 139 256 310.5t92 358.5q0 136 -74 221h252q60 -75 60 -219q0 -219 -150 -479.5t-354 -427.5h-191z" />
<glyph unicode="w" horiz-adv-x="1474" d="M322 1126h143l61 -856l332 654h123l82 -703q42 38 89.5 106t92.5 155.5t74 195t29 207.5q0 153 -76 241h219q31 -40 52.5 -108.5t21.5 -130.5q0 -145 -69.5 -334t-168 -341t-186.5 -212h-172l-72 537l-291 -537h-192z" />
<glyph unicode="x" d="M61 0l484 586l-221 540h163l164 -405l316 405h270l-465 -583l232 -543h-166l-170 410l-312 -410h-295z" />
<glyph unicode="y" d="M-14 -231l80 176q26 -51 79.5 -80t118.5 -29q77 0 144.5 36t138.5 128l-262 1126h204l222 -878l147 233q47 77 86 184t39 183q0 191 -78 278h156q65 -62 65 -233q0 -104 -49.5 -251t-120.5 -253l-315 -473q-131 -197 -224.5 -271.5t-195.5 -74.5q-88 0 -161.5 57.5 t-73.5 141.5z" />
<glyph unicode="z" d="M63 0l756 825h-203q-90 -1 -138 -31q-43 -27 -43 -70q0 -5 1 -11l-114 -8q-29 48 -29 104q0 36 12 76q31 104 121 172.5t244 68.5h573l-766 -854q83 -45 225 -45q116 0 177 38t61 100l96 -35q-2 -144 -105.5 -246t-266.5 -102q-79 0 -175 38.5t-151 98.5l-107 -119h-168z " />
<glyph unicode="{" horiz-adv-x="655" d="M127 397l76 353q79 -15 123 13t53 71q26 159 66.5 285.5t89 214t110.5 153.5t126 105.5t142 66.5l-118 -385q-125 -31 -210 -163.5t-106 -358.5q-5 -64 -49 -107.5t-139 -75.5q56 -14 86 -45t31.5 -68.5t-11.5 -80.5q-57 -174 -32.5 -271t124.5 -122l-32 -412 q-80 31 -134 85t-84.5 138.5t-24.5 210.5t50 289q4 21 -0.5 41.5t-18.5 38t-44.5 24.5t-73.5 0z" />
<glyph unicode="|" horiz-adv-x="655" d="M182 -358l414 1945h139l-413 -1945h-140z" />
<glyph unicode="}" horiz-adv-x="655" d="M-6 -430l139 412q230 52 260 393q7 68 53 121t136 73q-81 32 -106.5 75.5t-4.5 107.5q39 115 50 208t-4 156.5t-50 103t-90 54.5l45 385q66 -27 113.5 -66.5t82 -105.5t46 -153.5t-1.5 -214t-54 -285.5q-9 -42 23.5 -71t116.5 -13l-76 -353q-74 14 -121.5 -21t-56.5 -83 q-21 -131 -57 -238.5t-81.5 -185.5t-104 -138t-121 -98t-136.5 -63z" />
<glyph unicode="~" d="M309 551q70 124 181.5 188t224.5 31q109 -30 206 -27.5t134 35.5l8 -26q-76 -129 -192.5 -187t-211.5 -22q-118 39 -207.5 31t-134.5 -50z" />
<glyph unicode="&#xa1;" horiz-adv-x="655" d="M115 -242q0 94 25 187t58 160t78.5 170t73.5 192q37 110 49 217h144q-42 -118 -54 -217q-13 -118 -8 -346q0 -173 -8 -240q-35 -295 -242 -295q-62 0 -89 50t-27 122zM393 1001q0 62 41.5 100t114.5 38q54 0 85.5 -30t31.5 -73q0 -60 -43 -100.5t-119 -40.5 q-51 0 -81 30.5t-30 75.5z" />
<glyph unicode="&#xa2;" horiz-adv-x="1167" d="M211 385q0 235 76.5 409t209.5 263.5t304 89.5h18l62 153h149l-72 -176q163 -58 191 -254l-131 -178q-57 103 -182 123l-246 -608h24q246 0 340 127l99 -105q-75 -121 -198.5 -185t-283.5 -64q-35 0 -69 6l-66 -160h-149l86 213q-76 53 -119 141.5t-43 204.5zM342 465 q2 -65 31 -123t84 -92l231 569q-153 -17 -254 -121t-92 -233z" />
<glyph unicode="&#xa3;" horiz-adv-x="1372" d="M68 43l10 166q164 104 247.5 202.5t100.5 178.5h-274l38 186h218q-39 37 -65 112t-26 152q0 90 43.5 177t116.5 152.5t176 106t215 40.5q300 0 412 -226l-125 -274q-41 59 -144.5 101t-207.5 42q-159 0 -241.5 -57.5t-82.5 -128.5q0 -31 13.5 -60t30 -47t41.5 -44.5 t38 -45.5h338l-39 -186h-283q-31 -93 -110.5 -183.5t-177.5 -138.5q53 21 117.5 36t101.5 15q54 0 129 -21t110 -22q184 -3 293 101l-14 -209q-50 -85 -161 -135.5t-228 -52.5q-72 0 -129.5 15t-88 33t-77.5 33t-100 15q-92 0 -141.5 -6t-73.5 -27z" />
<glyph unicode="&#xa4;" d="M168 250l139 131q-33 70 -33 164q0 107 36 203.5t100 169.5l-74 118l139 111l74 -119q104 55 219 55q109 0 184 -57l125 121l94 -111l-131 -125q33 -81 33 -170q0 -241 -137 -387l68 -104l-138 -113l-71 113q-100 -43 -213 -43q-109 0 -187 59l-135 -129zM389 575 q0 -94 63 -145t166 -51q68 0 125 14.5t105 45.5t75 86t27 130q2 83 -57.5 138t-175.5 55q-67 0 -123 -17.5t-93 -45.5t-63 -64.5t-37.5 -73t-11.5 -72.5z" />
<glyph unicode="&#xa5;" horiz-adv-x="1679" d="M328 258l34 166h345l20 92l-10 29h-330l35 166h242l-261 784h146l233 -764l557 764h297l-598 -784h174l-34 -166h-267l-53 -70l-10 -51h305l-35 -166h-305l-55 -258h-142l56 258h-344z" />
<glyph unicode="&#xa6;" horiz-adv-x="655" d="M182 -358l168 794l148 39l-176 -833h-140zM416 737l180 850h139l-172 -811z" />
<glyph unicode="&#xa7;" d="M166 190l88 199q37 -67 107.5 -103t209.5 -36q70 0 122.5 8.5t81 21t46 30t22.5 31t5 28.5q4 89 -215 114q-162 19 -239 91t-77 180q0 82 41 150.5t115 113.5q-57 71 -57 186q0 54 12.5 107.5t45.5 109.5t82.5 98.5t131 69.5t184.5 27q141 0 216 -42.5t104 -129.5 l-78 -187q-29 43 -104.5 71t-178.5 28q-266 0 -266 -135q0 -91 211 -113q172 -19 251 -97t79 -190q0 -153 -164 -248q66 -80 66 -200q0 -58 -14.5 -112.5t-50.5 -106t-89 -90t-136.5 -61.5t-187.5 -23q-94 0 -161 16t-106.5 47.5t-60.5 65t-36 81.5zM477 803q0 -29 15 -50 t63 -39t131 -26q82 -8 156 -39q52 23 73 60t21 73q0 47 -48.5 76.5t-168.5 42.5q-83 8 -150 41q-76 -40 -92 -139z" />
<glyph unicode="&#xa8;" d="M494 1475q0 159 184 159q51 0 82 -36t31 -91q0 -60 -46.5 -101.5t-121.5 -41.5q-60 0 -94.5 32t-34.5 79zM911 1475q0 159 185 159q51 0 81.5 -36t30.5 -91q0 -60 -46.5 -101.5t-121.5 -41.5q-60 0 -94.5 32t-34.5 79z" />
<glyph unicode="&#xa9;" horiz-adv-x="757" d="M328 1180q1 163 80 245t215 82q62 0 115.5 -19.5t97 -58t68.5 -102t26 -145.5q-1 -163 -83 -245.5t-218 -82.5q-83 0 -149 33.5t-108.5 109t-43.5 183.5zM385 1180q4 -119 70 -177.5t174 -58.5q53 0 93 10.5t74.5 36t54 73.5t21.5 118q0 100 -72.5 167.5t-176.5 67.5 q-100 0 -169 -67t-69 -170zM467 1171q0 100 43 145.5t115 45.5q59 0 95 -23t50 -79l-35 -31q-29 37 -110 37q-119 0 -119 -101q0 -104 121 -104q45 0 76 17.5t40 47.5l31 -22q-24 -113 -153 -113q-70 0 -112 44.5t-42 135.5z" />
<glyph unicode="&#xaa;" horiz-adv-x="757" d="M82 961q0 109 72.5 170t199.5 61q142 0 217 -51q-6 95 -53 137.5t-143 42.5q-154 0 -219 -80l-6 174q77 92 239 92q142 0 206 -73t64 -256v-426h-57l-18 47q-68 -62 -215 -62q-140 0 -213.5 61t-73.5 163zM186 985q0 -42 53.5 -72t129.5 -30q142 0 202 57v94 q-78 58 -192 58q-94 0 -143.5 -28t-49.5 -79z" />
<glyph unicode="&#xab;" horiz-adv-x="962" d="M283 555l456 612l-90 -430l-268 -182l182 -137l-92 -438zM662 555l456 612l-90 -430l-268 -182l182 -137l-92 -438z" />
<glyph unicode="&#xac;" d="M305 750l55 264h775l-142 -666h-153l86 402h-621z" />
<glyph unicode="&#xad;" horiz-adv-x="655" d="M201 514l37 172h471l-37 -172h-471z" />
<glyph unicode="&#xae;" horiz-adv-x="757" d="M328 1180q1 163 80 245t215 82q62 0 115.5 -19.5t97 -58t68.5 -102t26 -145.5q-1 -163 -83 -245.5t-218 -82.5q-83 0 -149 33.5t-108.5 109t-43.5 183.5zM385 1180q4 -119 70 -177.5t174 -58.5q53 0 93 10.5t74.5 36t54 73.5t21.5 118q0 100 -72.5 167.5t-176.5 67.5 q-100 0 -169 -67t-69 -170zM498 997v359h127q135 0 135 -113q0 -85 -72 -100q25 -15 31 -47q3 -23 8.5 -30t17.5 -7q21 0 27 6l12 -47q-4 -12 -17 -18.5t-26 -6.5q-46 0 -59 86q-6 35 -55 35h-88v-117h-41zM539 1186h106q40 0 60 12t18 33q0 23 -18 32t-60 9h-106v-86z" />
<glyph unicode="&#xaf;" d="M459 1333l43 203h715l-43 -203h-715z" />
<glyph unicode="&#xb0;" horiz-adv-x="655" d="M82 1280q1 131 68 197.5t176 66.5q66 0 120 -26.5t90 -88t37 -149.5q-1 -131 -67.5 -197.5t-175.5 -66.5q-66 0 -120.5 26.5t-90.5 88t-37 149.5zM170 1280q1 -68 46 -102.5t114 -34.5q152 0 157 137q-3 59 -47.5 88t-113.5 29q-153 0 -156 -117z" />
<glyph unicode="&#xb1;" d="M240 143l47 224h755l-47 -224h-755zM315 670l47 223h297l50 233h153l-49 -233h315l-47 -223h-315l-43 -199h-154l43 199h-297z" />
<glyph unicode="&#xb4;" d="M498 1300q56 102 165 179t232 108t225 10l-65 -258q-68 39 -171 42t-205 -30.5t-167 -95.5z" />
<glyph unicode="&#xb6;" horiz-adv-x="1269" d="M303 956q0 123 53.5 231t146 184.5t221 120.5t273.5 44h418l-319 -1536h-140l254 1214h-139l-254 -1214h-139l117 553q-230 0 -362 112t-130 291z" />
<glyph unicode="&#xb7;" horiz-adv-x="552" d="M295 541q0 75 54 125.5t149 50.5q61 0 98 -38t37 -95q0 -74 -52 -119t-141 -45q-65 0 -105 36t-40 85z" />
<glyph unicode="&#xb8;" d="M238 -322l94 115q8 -28 51 -47.5t106 -19.5q155 0 173 45q7 18 -10.5 31.5t-45.5 13.5q-18 0 -54 -4.5t-52 -4.5q-38 0 -63 21.5t-25 52.5q0 29 19.5 67.5t49.5 71.5l92 -20q-24 -27 -24 -59q0 -10 6.5 -15.5t29.5 -9.5t66 -4q42 0 73.5 -34t31.5 -87q0 -96 -80.5 -158.5 t-229.5 -62.5q-94 0 -151 35t-57 73z" />
<glyph unicode="&#xba;" horiz-adv-x="757" d="M66 1108q0 207 83.5 303t229.5 96t229.5 -96t83.5 -303q0 -186 -85.5 -278.5t-227.5 -92.5t-227.5 92.5t-85.5 278.5zM150 1108q-1 -112 62 -162.5t167 -50.5t167 50.5t62 162.5q-2 85 -59.5 135.5t-169.5 50.5q-110 0 -168.5 -50.5t-60.5 -135.5z" />
<glyph unicode="&#xbb;" horiz-adv-x="962" d="M141 -20l92 438l244 137l-186 182l90 430l197 -612zM522 -20l92 438l244 137l-186 182l90 430l196 -612z" />
<glyph unicode="&#xbf;" d="M90 -63q0 196 126 341.5t316 170.5q4 1 29 4.5t32.5 4.5t30.5 5.5t32 8t27.5 10.5t27 14t21 18.5t18 24t10 29t4.5 36.5q0 43 -21 121l105 16q20 -34 33.5 -89t15.5 -99q0 -318 -401 -365q-153 -17 -212 -48.5t-59 -96.5q-1 -28 12.5 -54t44 -51t89.5 -40t139 -15 q252 0 362 150l95 -121q-154 -342 -523 -342q-165 0 -259.5 103.5t-94.5 263.5zM655 995q0 57 45 97.5t117 40.5q58 0 90.5 -31t32.5 -76q0 -152 -176 -152q-50 0 -79.5 34.5t-29.5 86.5z" />
<glyph unicode="&#xc0;" horiz-adv-x="1372" d="M61 0l826 1495h246l219 -1495h-146l-67 414h-588l-250 -414h-240zM643 569h469l-100 611zM815 1667l43 258q112 22 222.5 -8.5t187 -108t88.5 -180.5l-35 -45q-59 94 -219 119.5t-287 -35.5z" />
<glyph unicode="&#xc1;" horiz-adv-x="1372" d="M61 0l826 1495h246l219 -1495h-146l-67 414h-588l-250 -414h-240zM643 569h469l-100 611zM743 1628q56 102 165.5 179t232.5 108t225 10l-66 -258q-68 39 -170.5 42t-204.5 -30.5t-167 -95.5z" />
<glyph unicode="&#xc2;" horiz-adv-x="1372" d="M61 0l826 1495h246l219 -1495h-146l-67 414h-588l-250 -414h-240zM643 569h469l-100 611zM676 1608l14 69q95 17 214.5 105t189.5 184h41q31 -98 111 -185.5t169 -103.5l-14 -69q-112 -8 -218 22t-122 88q-39 -58 -157.5 -88t-227.5 -22z" />
<glyph unicode="&#xc3;" horiz-adv-x="1372" d="M61 0l826 1495h246l219 -1495h-146l-67 414h-588l-250 -414h-240zM643 569h469l-100 611zM709 1636q71 124 181.5 188t223.5 31q109 -30 206 -27t134 36l8 -27q-76 -129 -192.5 -187t-210.5 -22q-118 39 -207.5 31.5t-134.5 -49.5z" />
<glyph unicode="&#xc4;" horiz-adv-x="1372" d="M61 0l826 1495h246l219 -1495h-146l-67 414h-588l-250 -414h-240zM643 569h469l-100 611zM688 1720q0 160 184 160q51 0 82 -36t31 -91q0 -60 -46.5 -101.5t-121.5 -41.5q-60 0 -94.5 31.5t-34.5 78.5zM1106 1720q0 160 184 160q51 0 82 -36t31 -91q0 -60 -46.5 -101.5 t-121.5 -41.5q-60 0 -94.5 31.5t-34.5 78.5z" />
<glyph unicode="&#xc5;" horiz-adv-x="1372" d="M61 0l826 1495h246l219 -1495h-146l-67 414h-588l-250 -414h-240zM643 569h469l-100 611zM848 1780q0 114 77 185t183 71q73 0 121.5 -48.5t48.5 -132.5q0 -111 -72.5 -181t-183.5 -70q-72 0 -123 48.5t-51 127.5zM922 1808q0 -38 32 -63t93 -25q76 0 117.5 29t41.5 68 q0 41 -30.5 69.5t-92.5 28.5q-78 0 -119.5 -30.5t-41.5 -76.5z" />
<glyph unicode="&#xc6;" horiz-adv-x="1884" d="M31 0l829 1495h1137l-78 -367h-657l-66 -313h477l-39 -176h-477l-78 -371h668l-57 -268h-809l88 414h-449l-248 -414h-241zM600 549h397l125 590h-170z" />
<glyph unicode="&#xc7;" horiz-adv-x="1474" d="M233 520q0 165 33 315t98 274t155.5 215t211 141.5t258.5 50.5q204 0 338 -125.5t156 -329.5l-174 -137q-32 78 -140.5 134t-275.5 56q-125 0 -224.5 -36.5t-163 -100.5t-97 -149t-33.5 -185q0 -72 33.5 -142t88.5 -121.5t129.5 -83.5t151.5 -32q170 0 302 57.5 t188 161.5l96 -92q-70 -157 -215 -268.5t-344 -136.5q-14 -21 -14 -45q0 -10 6.5 -15.5t29.5 -9.5t66 -4q42 0 73 -34t31 -87q0 -96 -80 -158.5t-229 -62.5q-94 0 -151.5 35t-57.5 73l94 115q8 -28 51.5 -47.5t106.5 -19.5q154 0 172 45q7 18 -10 31.5t-45 13.5 q-18 0 -54.5 -4.5t-52.5 -4.5q-38 0 -63 21.5t-25 52.5q0 44 39 99q-192 5 -325.5 155.5t-133.5 384.5z" />
<glyph unicode="&#xc8;" horiz-adv-x="1269" d="M205 0l317 1495h881l-78 -369h-741l-66 -311h561l-39 -176h-559l-78 -371h750l-57 -268h-891zM733 1667l43 258q112 22 222.5 -8.5t187 -108t88.5 -180.5l-35 -45q-59 94 -219 119.5t-287 -35.5z" />
<glyph unicode="&#xc9;" horiz-adv-x="1269" d="M205 0l317 1495h881l-78 -369h-741l-66 -311h561l-39 -176h-559l-78 -371h750l-57 -268h-891zM739 1628q56 102 165.5 179t232.5 108t225 10l-66 -258q-68 39 -170.5 42t-204.5 -30.5t-167 -95.5z" />
<glyph unicode="&#xca;" horiz-adv-x="1269" d="M205 0l317 1495h881l-78 -369h-741l-66 -311h561l-39 -176h-559l-78 -371h750l-57 -268h-891zM614 1608l15 69q95 16 214 104.5t189 184.5h41q31 -97 111.5 -185t169.5 -104l-15 -69q-112 -8 -218 22t-122 88q-39 -58 -157.5 -88t-227.5 -22z" />
<glyph unicode="&#xcb;" horiz-adv-x="1269" d="M205 0l317 1495h881l-78 -369h-741l-66 -311h561l-39 -176h-559l-78 -371h750l-57 -268h-891zM627 1720q0 160 184 160q51 0 82 -36t31 -91q0 -60 -46.5 -101.5t-121.5 -41.5q-60 0 -94.5 31.5t-34.5 78.5zM1044 1720q0 160 185 160q51 0 81.5 -36t30.5 -91 q0 -60 -46 -101.5t-121 -41.5q-61 0 -95.5 32t-34.5 78z" />
<glyph unicode="&#xcc;" horiz-adv-x="962" d="M143 0l62 289h291l178 837h-279l78 369h692l-78 -369h-270l-178 -837h283l-62 -289h-717zM610 1667l43 258q112 22 222.5 -8.5t187 -108t88.5 -180.5l-35 -45q-59 94 -219 119.5t-287 -35.5z" />
<glyph unicode="&#xcd;" horiz-adv-x="962" d="M143 0l62 289h291l178 837h-279l78 369h692l-78 -369h-270l-178 -837h283l-62 -289h-717zM580 1628q56 102 165 179t232 108t225 10l-65 -258q-68 39 -171 42t-205 -30.5t-167 -95.5z" />
<glyph unicode="&#xce;" horiz-adv-x="962" d="M143 0l62 289h291l178 837h-279l78 369h692l-78 -369h-270l-178 -837h283l-62 -289h-717zM471 1608l14 69q95 17 214.5 105t189.5 184h41q31 -98 111 -185.5t169 -103.5l-14 -69q-112 -8 -218 22t-122 88q-39 -58 -157.5 -88t-227.5 -22z" />
<glyph unicode="&#xcf;" horiz-adv-x="962" d="M143 0l62 289h291l178 837h-279l78 369h692l-78 -369h-270l-178 -837h283l-62 -289h-717zM483 1720q0 160 185 160q51 0 81.5 -36t30.5 -91q0 -60 -46.5 -101.5t-121.5 -41.5q-60 0 -94.5 31.5t-34.5 78.5zM901 1720q0 160 184 160q51 0 82 -36t31 -91 q0 -60 -46.5 -101.5t-121.5 -41.5q-60 0 -94.5 31.5t-34.5 78.5z" />
<glyph unicode="&#xd0;" horiz-adv-x="1372" d="M131 598l49 227h142l141 670h500q220 0 350.5 -145.5t130.5 -401.5q0 -210 -62.5 -389t-170 -300.5t-252.5 -190t-308 -68.5h-506l127 598h-141zM352 295h430q137 0 254.5 57.5t188.5 162t71 233.5q0 106 -42.5 193.5t-128 141.5t-199.5 54h-396l-65 -312h444l-49 -227 h-444z" />
<glyph unicode="&#xd1;" horiz-adv-x="1474" d="M197 0l317 1495h332l381 -1280l270 1280h141l-317 -1495h-289l-436 1210l-258 -1210h-141zM770 1636q70 124 181.5 188t224.5 31q109 -30 206 -27t134 36l8 -27q-76 -129 -192.5 -187t-211.5 -22q-118 39 -207.5 31.5t-134.5 -49.5z" />
<glyph unicode="&#xd2;" horiz-adv-x="1474" d="M291 522q0 233 60 423t164.5 314t244.5 190.5t303 66.5q208 0 344.5 -153.5t136.5 -399.5q0 -221 -60.5 -407t-164.5 -311t-244 -195t-299 -70q-212 0 -348.5 149t-136.5 393zM428 666q1 -113 58 -206.5t150.5 -144.5t201.5 -51q88 0 166 15.5t151 52t125 92t83.5 141 t31.5 193.5q1 70 -27 133.5t-80 113.5t-133 79.5t-178 29.5q-137 0 -244 -36t-172.5 -99t-99 -142.5t-33.5 -170.5zM856 1667l43 258q112 22 222.5 -8.5t187 -108t88.5 -180.5l-35 -45q-59 94 -219 119.5t-287 -35.5z" />
<glyph unicode="&#xd3;" horiz-adv-x="1474" d="M291 522q0 233 60 423t164.5 314t244.5 190.5t303 66.5q208 0 344.5 -153.5t136.5 -399.5q0 -221 -60.5 -407t-164.5 -311t-244 -195t-299 -70q-212 0 -348.5 149t-136.5 393zM428 666q1 -113 58 -206.5t150.5 -144.5t201.5 -51q88 0 166 15.5t151 52t125 92t83.5 141 t31.5 193.5q1 70 -27 133.5t-80 113.5t-133 79.5t-178 29.5q-137 0 -244 -36t-172.5 -99t-99 -142.5t-33.5 -170.5zM764 1628q56 102 165 179t232 108t225 10l-65 -258q-68 39 -171 42t-205 -30.5t-167 -95.5z" />
<glyph unicode="&#xd4;" horiz-adv-x="1474" d="M291 522q0 233 60 423t164.5 314t244.5 190.5t303 66.5q208 0 344.5 -153.5t136.5 -399.5q0 -221 -60.5 -407t-164.5 -311t-244 -195t-299 -70q-212 0 -348.5 149t-136.5 393zM428 666q1 -113 58 -206.5t150.5 -144.5t201.5 -51q88 0 166 15.5t151 52t125 92t83.5 141 t31.5 193.5q1 70 -27 133.5t-80 113.5t-133 79.5t-178 29.5q-137 0 -244 -36t-172.5 -99t-99 -142.5t-33.5 -170.5zM737 1608l15 69q95 16 214 104.5t189 184.5h41q31 -97 111.5 -185t169.5 -104l-15 -69q-112 -8 -218 22t-122 88q-39 -58 -157.5 -88t-227.5 -22z" />
<glyph unicode="&#xd5;" horiz-adv-x="1474" d="M291 522q0 233 60 423t164.5 314t244.5 190.5t303 66.5q208 0 344.5 -153.5t136.5 -399.5q0 -221 -60.5 -407t-164.5 -311t-244 -195t-299 -70q-212 0 -348.5 149t-136.5 393zM428 666q1 -113 58 -206.5t150.5 -144.5t201.5 -51q88 0 166 15.5t151 52t125 92t83.5 141 t31.5 193.5q1 70 -27 133.5t-80 113.5t-133 79.5t-178 29.5q-137 0 -244 -36t-172.5 -99t-99 -142.5t-33.5 -170.5zM770 1636q70 124 181.5 188t224.5 31q109 -30 206 -27t134 36l8 -27q-76 -129 -192.5 -187t-211.5 -22q-118 39 -207.5 31.5t-134.5 -49.5z" />
<glyph unicode="&#xd6;" horiz-adv-x="1474" d="M291 522q0 233 60 423t164.5 314t244.5 190.5t303 66.5q208 0 344.5 -153.5t136.5 -399.5q0 -221 -60.5 -407t-164.5 -311t-244 -195t-299 -70q-212 0 -348.5 149t-136.5 393zM428 666q1 -113 58 -206.5t150.5 -144.5t201.5 -51q88 0 166 15.5t151 52t125 92t83.5 141 t31.5 193.5q1 70 -27 133.5t-80 113.5t-133 79.5t-178 29.5q-137 0 -244 -36t-172.5 -99t-99 -142.5t-33.5 -170.5zM750 1720q0 160 184 160q51 0 82 -36t31 -91q0 -60 -46.5 -101.5t-121.5 -41.5q-60 0 -94.5 31.5t-34.5 78.5zM1167 1720q0 160 185 160q51 0 81.5 -36 t30.5 -91q0 -60 -46.5 -101.5t-121.5 -41.5q-60 0 -94.5 31.5t-34.5 78.5z" />
<glyph unicode="&#xd7;" d="M135 209l412 409l-228 375l119 92l217 -358l361 358l123 -122l-387 -398l254 -418l-115 -94l-246 404l-385 -396z" />
<glyph unicode="&#xd8;" horiz-adv-x="1372" d="M215 -135l193 289q-117 145 -117 368q0 233 60 423t164.5 314t244.5 190.5t303 66.5q116 0 215 -52l94 142l148 -29l-129 -195q153 -160 153 -419q0 -221 -60.5 -407t-164.5 -311t-244 -195t-299 -70q-151 0 -266 77l-148 -221zM428 666q3 -177 127 -291l487 735 q-40 4 -65 4q-137 0 -244 -36t-172.5 -99t-99 -142.5t-33.5 -170.5zM670 299q81 -35 168 -35q88 0 166 15.5t151 52t125 92t83.5 141t31.5 193.5q2 98 -54 183.5t-157 131.5z" />
<glyph unicode="&#xd9;" horiz-adv-x="1474" d="M317 602l191 893h131l-158 -739q-50 -223 17 -316q92 -123 329 -123q232 0 369 123q102 94 145 299l160 756h135l-188 -889q-67 -318 -247.5 -472t-450.5 -154q-261 0 -380 154.5t-53 467.5zM856 1667l43 258q112 22 222.5 -8.5t187 -108t88.5 -180.5l-35 -45 q-59 94 -219 119.5t-287 -35.5z" />
<glyph unicode="&#xda;" horiz-adv-x="1474" d="M317 602l191 893h131l-158 -739q-50 -223 17 -316q92 -123 329 -123q232 0 369 123q102 94 145 299l160 756h135l-188 -889q-67 -318 -247.5 -472t-450.5 -154q-261 0 -380 154.5t-53 467.5zM764 1628q56 102 165 179t232 108t225 10l-65 -258q-68 39 -171 42t-205 -30.5 t-167 -95.5z" />
<glyph unicode="&#xdb;" horiz-adv-x="1474" d="M317 602l191 893h131l-158 -739q-50 -223 17 -316q92 -123 329 -123q232 0 369 123q102 94 145 299l160 756h135l-188 -889q-67 -318 -247.5 -472t-450.5 -154q-261 0 -380 154.5t-53 467.5zM737 1608l15 69q95 16 214 104.5t189 184.5h41q31 -97 111.5 -185t169.5 -104 l-15 -69q-112 -8 -218 22t-122 88q-39 -58 -157.5 -88t-227.5 -22z" />
<glyph unicode="&#xdc;" horiz-adv-x="1474" d="M317 602l191 893h131l-158 -739q-50 -223 17 -316q92 -123 329 -123q232 0 369 123q102 94 145 299l160 756h135l-188 -889q-67 -318 -247.5 -472t-450.5 -154q-261 0 -380 154.5t-53 467.5zM750 1720q0 160 184 160q51 0 82 -36t31 -91q0 -60 -46.5 -101.5t-121.5 -41.5 q-60 0 -94.5 31.5t-34.5 78.5zM1167 1720q0 160 185 160q51 0 81.5 -36t30.5 -91q0 -60 -46.5 -101.5t-121.5 -41.5q-60 0 -94.5 31.5t-34.5 78.5z" />
<glyph unicode="&#xdd;" horiz-adv-x="1372" d="M403 1495h146l233 -764l557 764h297l-778 -1020l-100 -475h-142l111 516zM723 1628q56 102 165.5 179t232.5 108t225 10l-66 -258q-68 39 -171 42t-205 -30.5t-167 -95.5z" />
<glyph unicode="&#xde;" horiz-adv-x="1269" d="M133 0l318 1495h141l-49 -229h307q193 0 298 -103t105 -284q0 -258 -160 -415t-450 -157h-303l-66 -307h-141zM399 586h404q151 0 233 54.5t82 143.5q0 66 -63 110t-176 44h-406z" />
<glyph unicode="&#xdf;" d="M115 0l235 1104q41 196 171 304t300 108q153 0 249.5 -110.5t96.5 -262.5q0 -144 -77 -250t-213 -129q92 -13 142 -95.5t50 -191.5q0 -97 -36 -182t-105 -151.5t-180 -105t-252 -38.5h-136l56 256h155q375 0 375 213q0 77 -74.5 136t-214.5 59h-157l37 176h159 q166 0 250 44.5t84 127.5q2 69 -63.5 123.5t-182.5 54.5q-154 0 -231 -46t-96 -138l-213 -1006h-129z" />
<glyph unicode="&#xe0;" d="M213 414q0 158 44 296.5t118.5 234t175.5 150t213 54.5q131 0 252 -42t172 -99l-144 -668q-20 -96 -20 -340h-133v115q-60 -65 -154.5 -100t-208.5 -35q-141 0 -228 113t-87 321zM342 461q-4 -101 65.5 -169.5t178.5 -70.5q104 -2 192 24.5t140 82.5l88 422 q-49 34 -125 53.5t-156 19.5q-168 0 -272.5 -101.5t-110.5 -260.5zM631 1339l43 258q112 22 222 -8.5t186.5 -108t88.5 -180.5l-34 -45q-59 94 -219 119.5t-287 -35.5z" />
<glyph unicode="&#xe1;" d="M213 414q0 158 44 296.5t118.5 234t175.5 150t213 54.5q131 0 252 -42t172 -99l-144 -668q-20 -96 -20 -340h-133v115q-60 -65 -154.5 -100t-208.5 -35q-141 0 -228 113t-87 321zM342 461q-4 -101 65.5 -169.5t178.5 -70.5q104 -2 192 24.5t140 82.5l88 422 q-49 34 -125 53.5t-156 19.5q-168 0 -272.5 -101.5t-110.5 -260.5zM518 1300q56 102 165.5 179t232.5 108t225 10l-66 -258q-68 39 -171 42t-205 -30.5t-167 -95.5z" />
<glyph unicode="&#xe2;" d="M213 414q0 158 44 296.5t118.5 234t175.5 150t213 54.5q131 0 252 -42t172 -99l-144 -668q-20 -96 -20 -340h-133v115q-60 -65 -154.5 -100t-208.5 -35q-141 0 -228 113t-87 321zM342 461q-4 -101 65.5 -169.5t178.5 -70.5q104 -2 192 24.5t140 82.5l88 422 q-49 34 -125 53.5t-156 19.5q-168 0 -272.5 -101.5t-110.5 -260.5zM463 1280l14 70q96 17 215 104.5t189 183.5h41q31 -97 111 -184.5t169 -103.5l-14 -70q-112 -8 -218 22.5t-122 88.5q-39 -58 -157.5 -88.5t-227.5 -22.5z" />
<glyph unicode="&#xe3;" d="M213 414q0 158 44 296.5t118.5 234t175.5 150t213 54.5q131 0 252 -42t172 -99l-144 -668q-20 -96 -20 -340h-133v115q-60 -65 -154.5 -100t-208.5 -35q-141 0 -228 113t-87 321zM342 461q-4 -101 65.5 -169.5t178.5 -70.5q104 -2 192 24.5t140 82.5l88 422 q-49 34 -125 53.5t-156 19.5q-168 0 -272.5 -101.5t-110.5 -260.5zM494 1391q71 124 181.5 188t223.5 31q109 -30 206 -27.5t134 35.5l8 -27q-76 -129 -192.5 -187t-210.5 -22q-118 39 -207.5 31.5t-134.5 -49.5z" />
<glyph unicode="&#xe4;" d="M213 414q0 158 44 296.5t118.5 234t175.5 150t213 54.5q131 0 252 -42t172 -99l-144 -668q-20 -96 -20 -340h-133v115q-60 -65 -154.5 -100t-208.5 -35q-141 0 -228 113t-87 321zM342 461q-4 -101 65.5 -169.5t178.5 -70.5q104 -2 192 24.5t140 82.5l88 422 q-49 34 -125 53.5t-156 19.5q-168 0 -272.5 -101.5t-110.5 -260.5zM514 1475q0 159 184 159q51 0 82 -36t31 -91q0 -60 -46.5 -101.5t-121.5 -41.5q-60 0 -94.5 32t-34.5 79zM932 1475q0 159 184 159q51 0 82 -36t31 -91q0 -60 -46.5 -101.5t-121.5 -41.5q-60 0 -94.5 32 t-34.5 79z" />
<glyph unicode="&#xe5;" d="M213 414q0 158 44 296.5t118.5 234t175.5 150t213 54.5q131 0 252 -42t172 -99l-144 -668q-20 -96 -20 -340h-133v115q-60 -65 -154.5 -100t-208.5 -35q-141 0 -228 113t-87 321zM342 461q-4 -101 65.5 -169.5t178.5 -70.5q104 -2 192 24.5t140 82.5l88 422 q-49 34 -125 53.5t-156 19.5q-168 0 -272.5 -101.5t-110.5 -260.5zM641 1391q0 114 77 185t183 71q73 0 121.5 -48.5t48.5 -132.5q0 -112 -72.5 -182t-183.5 -70q-72 0 -123 49t-51 128zM715 1419q0 -38 32 -63t93 -25q77 0 118 28.5t41 67.5q0 41 -30.5 70t-91.5 29 q-78 0 -120 -30.5t-42 -76.5z" />
<glyph unicode="&#xe6;" horiz-adv-x="1884" d="M203 279q0 184 134.5 287.5t346.5 103.5q82 0 167.5 -19.5t135.5 -60.5q23 144 -30 209t-193 65q-141 0 -223.5 -26t-128.5 -84l47 254q66 68 166 103.5t215 35.5q245 0 299 -203q78 101 191.5 152t248.5 51q151 0 246.5 -97t95.5 -255q0 -173 -108 -250.5t-365 -91.5 l-332 -17q9 -109 82.5 -168.5t204.5 -60.5q245 -3 342 102l78 -71q-66 -119 -194.5 -188.5t-291.5 -69.5q-116 0 -197 58.5t-117 149.5t-36 205q-58 67 -129 99t-168 32q-153 0 -235 -49t-82 -117q0 -61 66.5 -112t166.5 -51q126 0 226 38.5t149 114.5l16 -174 q-80 -102 -179 -148t-261 -46q-88 0 -157.5 24.5t-111.5 66.5t-63.5 95t-21.5 113zM997 580l2 2zM1122 555l389 25q140 9 209.5 49.5t69.5 99.5q0 127 -281 127q-147 0 -253.5 -81t-133.5 -220z" />
<glyph unicode="&#xe7;" d="M211 385q0 235 76.5 409t209.5 263.5t304 89.5q308 0 348 -277l-131 -178q-34 63 -98 97t-179 34q-171 0 -289.5 -108.5t-109.5 -249.5q2 -105 72.5 -181.5t199.5 -76.5q246 0 340 127l99 -105q-75 -120 -196.5 -184.5t-276.5 -64.5q-11 -22 -11 -39q0 -10 6.5 -15.5 t30 -9.5t66.5 -4q42 0 73 -34t31 -87q0 -96 -80 -158.5t-229 -62.5q-94 0 -151.5 35t-57.5 73l94 115q8 -28 51.5 -47.5t106.5 -19.5q154 0 172 45q7 18 -10 31.5t-45 13.5q-18 0 -54.5 -4.5t-52.5 -4.5q-38 0 -63 21.5t-25 52.5q0 51 47 111q-120 32 -194 136t-74 257z" />
<glyph unicode="&#xe8;" d="M211 406q0 187 45.5 331t126.5 232.5t187 133t233 44.5q151 0 246.5 -97t95.5 -255q0 -173 -108 -250.5t-365 -91.5l-332 -17q9 -109 82.5 -168.5t204.5 -60.5q245 -3 342 102l78 -71q-66 -119 -194.5 -188.5t-291.5 -69.5q-71 0 -129 22t-98.5 61t-68.5 93t-41 117 t-13 133zM346 555l389 25q140 9 209.5 49.5t69.5 99.5q0 127 -281 127q-147 0 -253.5 -81t-133.5 -220zM610 1339l43 258q112 22 222.5 -8.5t187 -108t88.5 -180.5l-35 -45q-59 94 -219 119.5t-287 -35.5z" />
<glyph unicode="&#xe9;" d="M211 406q0 187 45.5 331t126.5 232.5t187 133t233 44.5q151 0 246.5 -97t95.5 -255q0 -173 -108 -250.5t-365 -91.5l-332 -17q9 -109 82.5 -168.5t204.5 -60.5q245 -3 342 102l78 -71q-66 -119 -194.5 -188.5t-291.5 -69.5q-71 0 -129 22t-98.5 61t-68.5 93t-41 117 t-13 133zM346 555l389 25q140 9 209.5 49.5t69.5 99.5q0 127 -281 127q-147 0 -253.5 -81t-133.5 -220zM498 1260q56 102 165 179t232 107.5t225 9.5l-65 -258q-68 39 -171 42t-205 -30.5t-167 -95.5z" />
<glyph unicode="&#xea;" d="M211 406q0 187 45.5 331t126.5 232.5t187 133t233 44.5q151 0 246.5 -97t95.5 -255q0 -173 -108 -250.5t-365 -91.5l-332 -17q9 -109 82.5 -168.5t204.5 -60.5q245 -3 342 102l78 -71q-66 -119 -194.5 -188.5t-291.5 -69.5q-71 0 -129 22t-98.5 61t-68.5 93t-41 117 t-13 133zM346 555l389 25q140 9 209.5 49.5t69.5 99.5q0 127 -281 127q-147 0 -253.5 -81t-133.5 -220zM463 1280l14 70q96 17 215 104.5t189 183.5h41q31 -97 111 -184.5t169 -103.5l-14 -70q-112 -8 -218 22.5t-122 88.5q-39 -58 -157.5 -88.5t-227.5 -22.5z" />
<glyph unicode="&#xeb;" d="M211 406q0 187 45.5 331t126.5 232.5t187 133t233 44.5q151 0 246.5 -97t95.5 -255q0 -173 -108 -250.5t-365 -91.5l-332 -17q9 -109 82.5 -168.5t204.5 -60.5q245 -3 342 102l78 -71q-66 -119 -194.5 -188.5t-291.5 -69.5q-71 0 -129 22t-98.5 61t-68.5 93t-41 117 t-13 133zM346 555l389 25q140 9 209.5 49.5t69.5 99.5q0 127 -281 127q-147 0 -253.5 -81t-133.5 -220zM514 1475q0 159 184 159q51 0 82 -36t31 -91q0 -60 -46.5 -101.5t-121.5 -41.5q-60 0 -94.5 32t-34.5 79zM932 1475q0 159 184 159q51 0 82 -36t31 -91 q0 -60 -46.5 -101.5t-121.5 -41.5q-60 0 -94.5 32t-34.5 79z" />
<glyph unicode="&#xec;" horiz-adv-x="655" d="M252 756l76 348h374l-229 -1104h-129l156 756h-248zM344 1339l43 258q112 22 222.5 -8.5t187 -108t88.5 -180.5l-35 -45q-59 94 -219 119.5t-287 -35.5z" />
<glyph unicode="&#xed;" horiz-adv-x="655" d="M252 756l76 348h374l-229 -1104h-129l156 756h-248zM281 1296q56 102 165 179t232 108t225 10l-65 -258q-68 39 -171 42t-205 -30.5t-167 -95.5z" />
<glyph unicode="&#xee;" horiz-adv-x="655" d="M197 1280l14 70q96 17 214.5 104.5t188.5 183.5h41q31 -97 111.5 -184.5t169.5 -103.5l-14 -70q-112 -8 -218 22.5t-122 88.5q-39 -58 -157.5 -88.5t-227.5 -22.5zM252 756l76 348h374l-229 -1104h-129l156 756h-248z" />
<glyph unicode="&#xef;" horiz-adv-x="655" d="M227 1475q0 159 185 159q51 0 81.5 -36t30.5 -91q0 -60 -46.5 -101.5t-121.5 -41.5q-60 0 -94.5 32t-34.5 79zM252 756l76 348h374l-229 -1104h-129l156 756h-248zM645 1475q0 159 184 159q51 0 82 -36t31 -91q0 -60 -46.5 -101.5t-121.5 -41.5q-60 0 -94.5 32t-34.5 79z " />
<glyph unicode="&#xf0;" d="M172 414q0 121 24.5 229.5t75 201t122.5 159.5t172.5 105t219.5 38q77 0 145.5 -23t102.5 -59q-9 119 -43 199l-168 -62l-22 127l121 45q-54 57 -125 66l49 157q134 -21 223 -167l176 65l23 -127l-146 -55q52 -148 52 -342q0 -464 -170.5 -727.5t-471.5 -263.5 q-169 0 -264.5 116.5t-95.5 317.5zM299 473q2 -118 76.5 -186t208.5 -68q184 0 298.5 98t114.5 265q0 103 -73 172t-213 69q-81 0 -150 -21.5t-116 -56.5t-81 -80.5t-49.5 -94.5t-15.5 -97zM1047 1049l2 -2z" />
<glyph unicode="&#xf1;" d="M135 0l240 1126h129l-37 -174q118 195 371 195q290 0 290 -309q-2 -60 -31 -217.5t-126 -620.5h-125q78 345 98.5 455.5t18.5 156.5q0 87 -56.5 136t-152.5 49q-134 0 -218.5 -43t-142.5 -154l-129 -600h-129zM494 1391q71 124 181.5 188t223.5 31q109 -30 206 -27.5 t134 35.5l8 -27q-76 -129 -192.5 -187t-210.5 -22q-118 39 -207.5 31.5t-134.5 -49.5z" />
<glyph unicode="&#xf2;" d="M193 397q0 346 168.5 548t439.5 202q164 0 259 -109t95 -307q0 -214 -73.5 -384.5t-212 -268.5t-318.5 -98q-162 0 -260 113t-98 304zM319 461q3 -118 81.5 -180t201.5 -62q349 0 410 303q10 58 -0.5 110.5t-42.5 96t-93.5 69t-144.5 25.5q-99 0 -179.5 -32.5t-130 -85.5 t-76 -116t-26.5 -128zM590 1339l43 258q112 22 222 -8.5t186.5 -108t88.5 -180.5l-34 -45q-59 94 -219 119.5t-287 -35.5z" />
<glyph unicode="&#xf3;" d="M193 397q0 346 168.5 548t439.5 202q164 0 259 -109t95 -307q0 -214 -73.5 -384.5t-212 -268.5t-318.5 -98q-162 0 -260 113t-98 304zM319 461q3 -118 81.5 -180t201.5 -62q349 0 410 303q10 58 -0.5 110.5t-42.5 96t-93.5 69t-144.5 25.5q-99 0 -179.5 -32.5t-130 -85.5 t-76 -116t-26.5 -128zM518 1300q56 102 165.5 179t232.5 108t225 10l-66 -258q-68 39 -171 42t-205 -30.5t-167 -95.5z" />
<glyph unicode="&#xf4;" d="M193 397q0 346 168.5 548t439.5 202q164 0 259 -109t95 -307q0 -214 -73.5 -384.5t-212 -268.5t-318.5 -98q-162 0 -260 113t-98 304zM319 461q3 -118 81.5 -180t201.5 -62q349 0 410 303q10 58 -0.5 110.5t-42.5 96t-93.5 69t-144.5 25.5q-99 0 -179.5 -32.5t-130 -85.5 t-76 -116t-26.5 -128zM463 1280l14 70q96 17 215 104.5t189 183.5h41q31 -97 111 -184.5t169 -103.5l-14 -70q-112 -8 -218 22.5t-122 88.5q-39 -58 -157.5 -88.5t-227.5 -22.5z" />
<glyph unicode="&#xf5;" d="M193 397q0 346 168.5 548t439.5 202q164 0 259 -109t95 -307q0 -214 -73.5 -384.5t-212 -268.5t-318.5 -98q-162 0 -260 113t-98 304zM319 461q3 -118 81.5 -180t201.5 -62q349 0 410 303q10 58 -0.5 110.5t-42.5 96t-93.5 69t-144.5 25.5q-99 0 -179.5 -32.5t-130 -85.5 t-76 -116t-26.5 -128zM494 1391q71 124 181.5 188t223.5 31q109 -30 206 -27.5t134 35.5l8 -27q-76 -129 -192.5 -187t-210.5 -22q-118 39 -207.5 31.5t-134.5 -49.5z" />
<glyph unicode="&#xf6;" d="M193 397q0 346 168.5 548t439.5 202q164 0 259 -109t95 -307q0 -214 -73.5 -384.5t-212 -268.5t-318.5 -98q-162 0 -260 113t-98 304zM319 461q3 -118 81.5 -180t201.5 -62q349 0 410 303q10 58 -0.5 110.5t-42.5 96t-93.5 69t-144.5 25.5q-99 0 -179.5 -32.5t-130 -85.5 t-76 -116t-26.5 -128zM514 1475q0 159 184 159q51 0 82 -36t31 -91q0 -60 -46.5 -101.5t-121.5 -41.5q-60 0 -94.5 32t-34.5 79zM932 1475q0 159 184 159q51 0 82 -36t31 -91q0 -60 -46.5 -101.5t-121.5 -41.5q-60 0 -94.5 32t-34.5 79z" />
<glyph unicode="&#xf7;" d="M240 547l47 223h755l-47 -223h-755zM399 281q0 71 50.5 117t140.5 46q54 0 88.5 -34.5t34.5 -85.5q0 -70 -48.5 -111t-132.5 -41q-57 0 -95 32.5t-38 76.5zM522 971q0 71 50.5 117.5t140.5 46.5q53 0 88 -34.5t35 -86.5q0 -70 -48.5 -111t-132.5 -41q-57 0 -95 32.5 t-38 76.5z" />
<glyph unicode="&#xf8;" d="M90 -96l170 231q-67 109 -67 262q0 346 168.5 548t439.5 202q99 0 170 -39l78 106l151 -26l-125 -170q80 -110 80 -287q0 -214 -73.5 -384.5t-212 -268.5t-318.5 -98q-113 0 -195 55l-114 -158zM319 461q3 -98 62 -160l381 522h-31q-99 0 -179.5 -32.5t-130 -85.5 t-76 -116t-26.5 -128zM502 231q47 -12 100 -12q349 0 410 303q14 80 -12.5 151t-94.5 111z" />
<glyph unicode="&#xf9;" d="M238 506l131 620h129l-115 -534q-38 -179 5.5 -258.5t193.5 -79.5q114 0 207.5 50.5t146.5 139.5l145 682h129l-153 -720q-33 -154 -33 -406h-133v182q-54 -97 -154.5 -149.5t-244.5 -52.5q-157 0 -231.5 139t-22.5 387zM590 1339l43 258q112 22 222 -8.5t186.5 -108 t88.5 -180.5l-34 -45q-59 94 -219 119.5t-287 -35.5z" />
<glyph unicode="&#xfa;" d="M238 506l131 620h129l-115 -534q-38 -179 5.5 -258.5t193.5 -79.5q114 0 207.5 50.5t146.5 139.5l145 682h129l-153 -720q-33 -154 -33 -406h-133v182q-54 -97 -154.5 -149.5t-244.5 -52.5q-157 0 -231.5 139t-22.5 387zM518 1300q56 102 165.5 179t232.5 108t225 10 l-66 -258q-68 39 -171 42t-205 -30.5t-167 -95.5z" />
<glyph unicode="&#xfb;" d="M238 506l131 620h129l-115 -534q-38 -179 5.5 -258.5t193.5 -79.5q114 0 207.5 50.5t146.5 139.5l145 682h129l-153 -720q-33 -154 -33 -406h-133v182q-54 -97 -154.5 -149.5t-244.5 -52.5q-157 0 -231.5 139t-22.5 387zM463 1280l14 70q96 17 215 104.5t189 183.5h41 q31 -97 111 -184.5t169 -103.5l-14 -70q-112 -8 -218 22.5t-122 88.5q-39 -58 -157.5 -88.5t-227.5 -22.5z" />
<glyph unicode="&#xfc;" d="M238 506l131 620h129l-115 -534q-38 -179 5.5 -258.5t193.5 -79.5q114 0 207.5 50.5t146.5 139.5l145 682h129l-153 -720q-33 -154 -33 -406h-133v182q-54 -97 -154.5 -149.5t-244.5 -52.5q-157 0 -231.5 139t-22.5 387zM512 1475q0 159 184 159q51 0 82 -36t31 -91 q0 -60 -46.5 -101.5t-121.5 -41.5q-60 0 -94.5 32t-34.5 79zM930 1475q0 159 184 159q51 0 82 -36t31 -91q0 -60 -46.5 -101.5t-121.5 -41.5q-60 0 -94.5 32t-34.5 79z" />
<glyph unicode="&#xfd;" d="M6 -231l80 176q26 -51 80 -80t119 -29q77 0 144 36t138 128l-262 1126h205l221 -878l148 233q47 77 86 184t39 183q0 191 -78 278h155q66 -63 66 -233q0 -104 -49.5 -251t-120.5 -253l-315 -473q-131 -197 -224.5 -271.5t-195.5 -74.5q-88 0 -162 57.5t-74 141.5z M518 1300q56 102 165.5 179t232.5 108t225 10l-66 -258q-68 39 -171 42t-205 -30.5t-167 -95.5z" />
<glyph unicode="&#xfe;" d="M27 -410l405 1905h129l-115 -541q65 98 160.5 145.5t204.5 47.5q144 0 233 -102.5t89 -292.5q0 -347 -160 -559.5t-422 -212.5q-188 0 -281 147l-114 -537h-129zM326 387q20 -77 93.5 -120.5t174.5 -45.5q179 -3 289 98t110 277q0 100 -72.5 165.5t-191.5 65.5 q-159 0 -248 -64.5t-112 -176.5z" />
<glyph unicode="&#xff;" d="M6 -231l80 176q26 -51 80 -80t119 -29q77 0 144 36t138 128l-262 1126h205l221 -878l148 233q47 77 86 184t39 183q0 191 -78 278h155q66 -63 66 -233q0 -104 -49.5 -251t-120.5 -253l-315 -473q-131 -197 -224.5 -271.5t-195.5 -74.5q-88 0 -162 57.5t-74 141.5z M473 1475q0 159 184 159q51 0 82 -36t31 -91q0 -60 -46.5 -101.5t-121.5 -41.5q-60 0 -94.5 32t-34.5 79zM891 1475q0 159 184 159q51 0 82 -36t31 -91q0 -60 -46.5 -101.5t-121.5 -41.5q-60 0 -94.5 32t-34.5 79z" />
<glyph unicode="&#x152;" horiz-adv-x="1884" d="M219 522q0 233 60 423t164.5 314t244.5 190.5t303 66.5q100 0 189 -39l4 18h813l-78 -369h-674l-65 -311h493l-39 -176h-491l-78 -371h682l-57 -268h-818q-88 -20 -167 -20q-212 0 -349 149t-137 393zM356 666q1 -113 58 -206.5t150.5 -144.5t201.5 -51q84 0 160 15 l170 800q-84 35 -191 35q-137 0 -244 -36t-172.5 -99t-99 -142.5t-33.5 -170.5z" />
<glyph unicode="&#x153;" horiz-adv-x="1884" d="M244 397q0 346 168.5 548t439.5 202q106 0 184 -46t121 -134q155 180 422 180q151 0 246.5 -97t95.5 -255q0 -173 -108 -250.5t-365 -91.5l-332 -17q9 -109 82.5 -168.5t204.5 -60.5q245 -3 342 102l78 -71q-66 -119 -194.5 -188.5t-291.5 -69.5q-113 0 -190 53t-117 147 q-164 -200 -428 -200q-162 0 -260 113t-98 304zM371 461q3 -118 81 -180t201 -62q234 0 336 133q-2 16 -2 54q0 174 39 311q-72 106 -244 106q-79 0 -147.5 -21.5t-116 -57.5t-81.5 -83t-50 -98t-16 -102zM1122 555l389 25q140 9 209.5 49.5t69.5 99.5q0 127 -281 127 q-147 0 -253.5 -81t-133.5 -220z" />
<glyph unicode="&#x178;" horiz-adv-x="1372" d="M403 1495h146l233 -764l557 764h297l-778 -1020l-100 -475h-142l111 516zM627 1720q0 160 184 160q51 0 82 -36t31 -91q0 -60 -46.5 -101.5t-121.5 -41.5q-60 0 -94.5 31.5t-34.5 78.5zM1044 1720q0 160 185 160q51 0 81.5 -36t30.5 -91q0 -60 -46 -101.5t-121 -41.5 q-61 0 -95.5 32t-34.5 78z" />
<glyph unicode="&#x2c6;" d="M442 1280l15 70q96 17 214.5 104.5t188.5 183.5h41q31 -97 111.5 -184.5t169.5 -103.5l-15 -70q-112 -8 -218 22.5t-122 88.5q-39 -58 -157.5 -88.5t-227.5 -22.5z" />
<glyph unicode="&#x2dc;" d="M473 1391q70 124 181.5 188t224.5 31q109 -30 206 -27.5t134 35.5l8 -27q-76 -129 -192.5 -187t-211.5 -22q-118 39 -207.5 31.5t-134.5 -49.5z" />
<glyph unicode="&#x2000;" horiz-adv-x="1018" />
<glyph unicode="&#x2001;" horiz-adv-x="2036" />
<glyph unicode="&#x2002;" horiz-adv-x="1018" />
<glyph unicode="&#x2003;" horiz-adv-x="2036" />
<glyph unicode="&#x2004;" horiz-adv-x="678" />
<glyph unicode="&#x2005;" horiz-adv-x="509" />
<glyph unicode="&#x2006;" horiz-adv-x="339" />
<glyph unicode="&#x2007;" horiz-adv-x="339" />
<glyph unicode="&#x2008;" horiz-adv-x="254" />
<glyph unicode="&#x2009;" horiz-adv-x="407" />
<glyph unicode="&#x200a;" horiz-adv-x="113" />
<glyph unicode="&#x2010;" horiz-adv-x="655" d="M201 514l37 172h471l-37 -172h-471z" />
<glyph unicode="&#x2011;" horiz-adv-x="655" d="M201 514l37 172h471l-37 -172h-471z" />
<glyph unicode="&#x2012;" horiz-adv-x="655" d="M201 514l37 172h471l-37 -172h-471z" />
<glyph unicode="&#x2013;" d="M182 524l33 152h922l-33 -152h-922z" />
<glyph unicode="&#x2014;" horiz-adv-x="1679" d="M203 524l33 152h1495l-33 -152h-1495z" />
<glyph unicode="&#x2018;" horiz-adv-x="450" d="M287 928q-5 119 43.5 247.5t139 228.5t196.5 132l34 -29q-105 -82 -154 -264.5t-7 -314.5h-252z" />
<glyph unicode="&#x2019;" horiz-adv-x="450" d="M276 956q105 82 154.5 265t7.5 315h252q0 -122 -48 -249t-137 -227t-194 -132z" />
<glyph unicode="&#x201a;" horiz-adv-x="450" d="M10 -395q105 82 154.5 265t7.5 314h252q0 -122 -48 -249t-137 -227t-194 -132z" />
<glyph unicode="&#x201c;" horiz-adv-x="860" d="M322 928q-5 119 43.5 247.5t138.5 228.5t196 132l35 -29q-105 -82 -154.5 -265t-7.5 -314h-251zM700 928q-5 119 43.5 247.5t139 228.5t196.5 132l35 -29q-105 -82 -154.5 -265t-7.5 -314h-252z" />
<glyph unicode="&#x201d;" horiz-adv-x="860" d="M311 956q105 82 154.5 265t7.5 315h252q0 -122 -48 -249t-137 -227t-194 -132zM690 956q105 82 154.5 265t7.5 315h252q0 -122 -48 -249t-137 -227t-194 -132z" />
<glyph unicode="&#x201e;" horiz-adv-x="860" d="M45 -395q105 82 154.5 265t7.5 314h252q0 -122 -48 -249t-137 -227t-194 -132zM424 -395q105 82 154.5 265t7.5 314h252q0 -122 -48 -249t-137 -227t-194 -132z" />
<glyph unicode="&#x2022;" horiz-adv-x="757" d="M258 528q0 105 74 174.5t203 69.5q84 0 134 -54t50 -134q0 -97 -72 -158t-194 -61q-86 0 -140.5 48.5t-54.5 114.5z" />
<glyph unicode="&#x2026;" horiz-adv-x="1679" d="M223 111q0 75 48.5 125.5t134.5 50.5q53 0 83.5 -38t30.5 -95q0 -74 -46.5 -119t-125.5 -45q-56 0 -90.5 35.5t-34.5 85.5zM721 111q0 76 48 126t134 50q53 0 84 -38t31 -95q0 -74 -46.5 -119t-125.5 -45q-56 0 -90.5 35.5t-34.5 85.5zM1217 111q0 76 48 126t134 50 q53 0 83.5 -38t30.5 -95q0 -74 -46.5 -119t-125.5 -45q-56 0 -90 35.5t-34 85.5z" />
<glyph unicode="&#x202f;" horiz-adv-x="407" />
<glyph unicode="&#x2039;" horiz-adv-x="552" d="M231 555l457 612l-90 -430l-268 -182l182 -137l-92 -438z" />
<glyph unicode="&#x203a;" horiz-adv-x="552" d="M123 -20l92 438l244 137l-187 182l90 430l197 -612z" />
<glyph unicode="&#x205f;" horiz-adv-x="509" />
<glyph unicode="&#x20ac;" horiz-adv-x="1576" d="M47 457l35 166h156q3 61 12 120h-144l35 166h146q79 276 262 441.5t440 165.5q204 0 338 -125.5t156 -329.5l-174 -137q-32 78 -140.5 134t-275.5 56q-155 0 -267.5 -54t-176.5 -151h462l-34 -166h-494q-8 -44 -8 -100v-20h477l-35 -166h-385q57 -87 149.5 -140 t196.5 -53q170 0 302 57.5t188 161.5l96 -92q-38 -85 -99 -158t-143.5 -130t-191.5 -90t-230 -33q-181 0 -312.5 131.5t-151.5 345.5h-189z" />
<glyph unicode="&#x25fc;" horiz-adv-x="1126" d="M0 0v1126h1126v-1126h-1126z" />
</font>
</defs>
</svg>
